За последнюю неделю опубликовано 63 новых материалов.
Инструкция новичку Путеводитель по форуму Прокси для Telegram Показать подсказки , это бомба!

Скачать Принцесса-невеста / The Princess Bride (1987) UHD BDRemux 2160p от селезень | 4K | HDR | Dolby Vision TV | P бесплатно через торрент

  • Поучаствуй (в качестве покупателя) в любых пяти совместных покупках (кроме завершённых и "Моментальных") и получи группу "Новичок" навсегда -> ссылка на раздел
  • Получай до 480 рублей за каждого приглашенного пользователя!
    представляем Вам очередное расширение партнерской программы, подробности описаны тут -> ссылка
  • 90% материалов доступно к скачиванию после простой регистрации!
    Если же ты хочешь скачивать материалы без требования оставлять отзывы то получи группу "Новичок", 10 способов повышения описаны тут -> ссылка
  • К сожалению количество битых ссылок растет и мы уже не можем их оперативно восстанавливать поэтому просим помощи у каждого нашего пользователя.
    С сегодняшнего дня, за каждую восстановленную ссылку мы заплатим Вам.
    Подробнее тут -> ссылка
  • Перенесем твои заслуги с другого ресурса!
    Мы понимаем как сложно прокачивать аккаунты на форумах, вроде раскачал аккаунт, а тут появляется ресурс в 100 раз круче но тоже с системой прокачки и снова качать аккаунт...
    Предлагаем вам перенести Ваши заслуги на другом подобном ресурсе к нам.
    Подробности описаны тут -> ссылка
  • Вы можете получать по 2.5% с каждой покупки и продажи на маркете! Подробности в теме Партнёрская программа
Если Вы не хотите скачивать, Вы всегда можетепосмотретьонлайн, просто нажмите кнопку ниже :

Открыть плеер

Torrent_Bot

Торрент-Бот
Бот форума
4 Окт 2016
92
160
20


Информация о фильме
Название: Принцесса невеста
Оригинальное название: The Princess Bride
Год выхода: 1987
Жанр: Фэнтези, мелодрама, комедия, приключения, семейный, экранизация
Режиссер: Роб Райнер
В ролях: Кэри Элвес, Робин Райт, Мэнди Пэтинкин, Крис Сарандон, Кристофер Гест, Уоллес Шон, Андре Гигант, Фред Сэвидж, Питер Фальк, Питер Кук, Мэл Смит, Кэрол Кэйн, Билли Кристал



О фильме: По мотивам одноимённого романа американского писателя Уильяма Голдмана. Добро пожаловать в фантастический мир прекрасных замков, жутких подземелий, бескрайних океанов, лесов и гор. Чтобы спасти свою возлюбленную, прекрасную невесту, отважный герой преодолевает немыслимые препятствия и совершает невероятные подвиги. Это по - настоящему захватывающая история! Сражения на шпагах! Пытки! Месть! Великаны! Злодеи! Прекрасные дамы! Чудовища всех мастей и размеров!

Страна: США
Студия: Act III Communications, Buttercup Films Ltd., The Princess Bride Ltd.
Продолжительность: 01:38:26
Перевод: Профессиональный многоголосый | D2Lab

Качество: BDRemux 2160p
Видео: 3840x2160 at 23.976 fps, MPEG-H HEVC HDR, Dolby Vision Video, 57900 kbps avg
Аудио: 48 kHz, AC3, 5.1, 448 Kbps | D2Lab | RUS |
Субтитры: Нет



MI
General
Complete name : E:Video111The.Princess.Bride.1987.BDREMUX.2160p.HDR.DV_TV.seleZen.mp4
Format : MPEG-4
Format profile : Base Media / Version 2
Codec ID : mp42 (mp42/dby1/isom)
File size : 43.1 GiB
Duration : 1 h 38 min
Overall bit rate : 62.7 Mb/s
Encoded date : UTC 2020-06-21 08:17:01
Tagged date : UTC 2020-06-21 08:17:01

Video #1
ID : 1
Format : HEVC
Format/Info : High Efficiency Video Coding
Format profile : Main [email protected]@High
HDR format : SMPTE ST 2094 App 4, Version 1, HDR10+ Profile B compatible
Codec ID : hev1
Codec ID/Info : High Efficiency Video Coding
Duration : 1 h 38 min
Bit rate : 57.9 Mb/s
Width : 3 840 pixels
Height : 2 160 pixels
Display aspect ratio : 16:9
Frame rate mode : Constant
Frame rate : 23.976 (24000/1001) FPS
Color space : YUV
Chroma subsampling : 4:2:0 (Type 2)
Bit depth : 10 bits
Bits/(Pixel*Frame) : 0.291
Stream size : 39.8 GiB (92%)
Default : No
Encoded date : UTC 2020-06-21 08:17:01
Tagged date : UTC 2020-06-21 08:17:01
Color range : Limited
Color primaries : BT.2020
Transfer characteristics : PQ
Matrix coefficients : BT.2020 non-constant
Mastering display color pri : Display P3
Mastering display luminance : min: 0.0001 cd/m2, max: 1000 cd/m2
Maximum Content Light Level : 1000 cd/m2
Maximum Frame-Average Light : 400 cd/m2
Codec configuration box : hvcC

Video #2
ID : 2
Format : HEVC
Format/Info : High Efficiency Video Coding
Format profile : Main [email protected]@High
HDR format : Dolby Vision, Version 1.0, dvhe.07.06, EL+RPU, Blu-ray compatible / SMPTE ST 2086, HDR10 compatible
Codec ID : dvhe
Codec ID/Info : High Efficiency Video Coding with Dolby Vision
Duration : 1 h 38 min
Bit rate : 4 344 kb/s
Width : 1 920 pixels
Height : 1 080 pixels
Display aspect ratio : 16:9
Frame rate mode : Constant
Frame rate : 23.976 (24000/1001) FPS
Color space : YUV
Chroma subsampling : 4:2:0 (Type 2)
Bit depth : 10 bits
Bits/(Pixel*Frame) : 0.087
Stream size : 2.99 GiB (7%)
Default : No
Encoded date : UTC 2020-06-21 08:17:01
Tagged date : UTC 2020-06-21 08:17:01
Color range : Limited
Color primaries : BT.2020
Transfer characteristics : PQ
Matrix coefficients : BT.2020 non-constant
Mastering display color pri : Display P3
Mastering display luminance : min: 0.0001 cd/m2, max: 1000 cd/m2
Codec configuration box : hvcC+dvcC

Audio
ID : 3
Format : AC-3
Format/Info : Audio Coding 3
Commercial name : Dolby Digital
Codec ID : ac-3
Duration : 1 h 38 min
Bit rate mode : Constant
Bit rate : 448 kb/s
Channel(s) : 6 channels
Channel layout : L R C LFE Ls Rs
Sampling rate : 48.0 kHz
Frame rate : 31.250 FPS (1536 SPF)
Compression mode : Lossy
Stream size : 315 MiB (1%)
Language : Russian
Service kind : Complete Main
Default : No
Encoded date : UTC 2020-06-21 08:17:01
Tagged date : UTC 2020-06-21 08:17:01

Релиз от:

 

Вложения

  • 54,9 KB Просмотры: 0
    Личеров 0
    Сидеров 0
    Файлов 1
    Объем 43,1 GB

Привет!

Мы группа людей которые решили помочь другим в решении их проблем, а так же пользователям с поиском самых свежих и качественных инфопродуктов. За 4 с небольшим месяца мы создали этот форум на который заходят ежедневно тысячи человек и посещаемость постоянно растёт. Мы создали панель лицензирования для защиты PHP скриптов от воровства и SEO панель для мониторинга наших сайтов и выбора верной стратегии их развития. Мы надеемся что то что мы создали пригодится Вам и возможно Вы поможете нам развиваться и совершенствоваться вместе с Вами.

Статистика форума

Темы
406.658
Сообщения
465.103
Пользователи
84.691
Новый пользователь
Bag vaf

Приложения форума для iOS и Android


У ркн там нет власти ;)
Приватные разговоры
Помощь Пользователи
    Вы не присоединились ни к одной комнате.