За последнюю неделю опубликовано 49 новых материалов.
Инструкция новичку Путеводитель по форуму Прокси для Telegram Показать подсказки , это бомба!

Скачать Прилетит вдруг волшебник (2008) HDTVRip 1080p от MediaClub бесплатно через торрент

  • Поучаствуй (в качестве покупателя) в любых пяти совместных покупках (кроме завершённых и "Моментальных") и получи группу "Новичок" навсегда -> ссылка на раздел
  • Получай до 480 рублей за каждого приглашенного пользователя!
    представляем Вам очередное расширение партнерской программы, подробности описаны тут -> ссылка
  • 90% материалов доступно к скачиванию после простой регистрации!
    Если же ты хочешь скачивать материалы без требования оставлять отзывы то получи группу "Новичок", 10 способов повышения описаны тут -> ссылка
  • К сожалению количество битых ссылок растет и мы уже не можем их оперативно восстанавливать поэтому просим помощи у каждого нашего пользователя.
    С сегодняшнего дня, за каждую восстановленную ссылку мы заплатим Вам.
    Подробнее тут -> ссылка
  • Перенесем твои заслуги с другого ресурса!
    Мы понимаем как сложно прокачивать аккаунты на форумах, вроде раскачал аккаунт, а тут появляется ресурс в 100 раз круче но тоже с системой прокачки и снова качать аккаунт...
    Предлагаем вам перенести Ваши заслуги на другом подобном ресурсе к нам.
    Подробности описаны тут -> ссылка
  • Вы можете получать по 2.5% с каждой покупки и продажи на маркете! Подробности в теме Партнёрская программа
Если Вы не хотите скачивать, Вы всегда можетепосмотретьонлайн, просто нажмите кнопку ниже :

Открыть плеер

Torrent_Bot

Торрент-Бот
Бот форума
4 Окт 2016
93
160
20
Информация о фильме
Название: Прилетит вдруг волшебник
Год выхода: 2008
Жанр: Мелодрама
Режиссер: Игорь Штернберг, Ксана Харламова
В ролях: Инна Гомес, Сергей Горобченко, Вениамин Смехов, Всеволод Николаев, Мария Машкова, Андрей Тартаков, Елена Ручкина, Любовь Селютина, Станислав Дужников, Ирина Бродская, Евгения Коцюбинская

О фильме:
Вера — красивая молодая женщина никак не может устроиться на работу, поскольку красота ей только мешает, ведь на каждом новом месте работы она получает от начальника непристойные предложения. Подруга Веры, Катя, работающая в театре, с помощью грима делает из Веры «страшненькую». И тут девушке улыбается удача, она устраивается в богатый дом, няней к маленькому мальчику. Сергей отец мальчика, удачливый бизнесмен, должен совершить важную сделку, одним из главных условий которой является женитьба Сергея. У Сергея есть девушка Галя, которая уже почти прошла проверку — Сергей представился ей безработным, желая удостовериться что, Галя действительно любит его, а не его деньги. Но как теперь сказать Гале правду, тем более что Сергей понимает, что влюблен в Веру…



Страна: Россия, Украина
Студия: Star Media
Продолжительность: 01:30:53
Перевод: Не требуется

Файл
Кодек: h.264
Качество: HDTVRip 1080p
Видео: MPEG-4 AVC, 10160 Кбит/с, 1920x1080, 25.000 кадр/с
Звук: Русский (AC3, 6 ch, 448 Кбит/с)
Субтитры: Нет

Семпл

О релизе
Автор релиза - Silverok, первоисточник - Наш Кинороман HD
MI
General
Unique ID : 209914569906003074452461453679384869592 (0x9DEC135A297CF8DC9BC12BD549D83AD8)
Complete name : D:uTorrentPriletit.vdrug.volshebnik.2008.HDTVRip.1080p.MediaClub.mkv
Format : Matroska
Format version : Version 4 / Version 2
File size : 6.74 GiB
Duration : 1 h 30 min
Overall bit rate : 10.6 Mb/s
Encoded date : UTC 2016-11-29 08:20:39 / UTC 2016-11-28T12:23:15Z
Writing application : mkvmerge v9.4.2 ('So High') 64bit
Writing library : libebml v1.3.4 + libmatroska v1.4.5 / Lavf55.12.0

Video
ID : 1
Format : AVC
Format/Info : Advanced Video Codec
Format profile : [email protected]
Format settings, CABAC : Yes
Format settings, ReFrames : 4 frames
Codec ID : V_MPEG4/ISO/AVC
Duration : 1 h 30 min
Bit rate : 10.2 Mb/s
Width : 1 920 pixels
Height : 1 080 pixels
Display aspect ratio : 16:9
Frame rate mode : Constant
Frame rate : 25.000 FPS
Color space : YUV
Chroma subsampling : 4:2:0
Bit depth : 8 bits
Scan type : Progressive
Bits/(Pixel*Frame) : 0.196
Stream size : 6.32 GiB (94%)
Writing library : x264 core 142 r2479 dd79a61
Encoding settings : cabac=1 / ref=4 / deblock=1:-3:-3 / analyse=0x3:0x133 / me=umh / subme=9 / psy=1 / psy_rd=2.00:0.70 / mixed_ref=1 / me_range=16 / chroma_me=1 / trellis=2 / 8x8dct=1 / cqm=0 / deadzone=21,11 / fast_pskip=1 / chroma_qp_offset=-4 / threads=12 / lookahead_threads=1 / sliced_threads=0 / nr=0 / decimate=1 / interlaced=0 / bluray_compat=0 / constrained_intra=0 / bframes=3 / b_pyramid=2 / b_adapt=2 / b_bias=0 / direct=3 / weightb=1 / open_gop=0 / weightp=2 / keyint=250 / keyint_min=25 / scenecut=40 / intra_refresh=0 / rc_lookahead=60 / rc=2pass / mbtree=1 / bitrate=10160 / ratetol=1.0 / qcomp=0.60 / qpmin=0 / qpmax=69 / qpstep=4 / cplxblur=20.0 / qblur=0.5 / vbv_maxrate=62500 / vbv_bufsize=78125 / nal_hrd=none / filler=0 / ip_ratio=1.40 / aq=1:1.20
Default : Yes
Forced : No
Color range : Limited
Color primaries : BT.709
Transfer characteristics : BT.709
Matrix coefficients : BT.709
Statistics Tags Issue : mkvmerge v9.4.2 ('So High') 64bit 2016-11-29 08:20:39 / mkvmerge v9.4.2 ('So High') 64bit 2016-11-29 08:20:39 / UTC 2016-11-28T12:23:15Z
FromStats_BitRate : 10159647
FromStats_Duration : 01:30:53.720000000
FromStats_FrameCount : 136343
FromStats_StreamSize : 6925983794

Audio
ID : 2
Format : AC-3
Format/Info : Audio Coding 3
Mode extension : CM (complete main)
Format settings, Endianness : Big
Codec ID : A_AC3
Duration : 1 h 30 min
Bit rate mode : Constant
Bit rate : 448 kb/s
Channel(s) : 6 channels
Channel positions : Front: L C R, Side: L R, LFE
Sampling rate : 44.1 kHz
Frame rate : 28.711 FPS (1536 spf)
Compression mode : Lossy
Delay relative to video : -6 ms
Stream size : 291 MiB (4%)
Language : Russian
Default : Yes
Forced : No
Statistics Tags Issue : mkvmerge v9.4.2 ('So High') 64bit 2016-11-29 08:20:39 / mkvmerge v9.4.2 ('So High') 64bit 2016-11-29 08:20:39 / UTC 2016-11-28T12:23:15Z
FromStats_BitRate : 447999
FromStats_Duration : 01:30:53.741000000
FromStats_FrameCount : 156582
FromStats_StreamSize : 305409464
Скриншоты

Релиз от: | Silverok
 

Вложения

  • 17,9 KB Просмотры: 1
    Личеров 0
    Сидеров 0
    Файлов 1
    Объем 6,7 GB

Привет!

Мы группа людей которые решили помочь другим в решении их проблем, а так же пользователям с поиском самых свежих и качественных инфопродуктов. За 4 с небольшим месяца мы создали этот форум на который заходят ежедневно тысячи человек и посещаемость постоянно растёт. Мы создали панель лицензирования для защиты PHP скриптов от воровства и SEO панель для мониторинга наших сайтов и выбора верной стратегии их развития. Мы надеемся что то что мы создали пригодится Вам и возможно Вы поможете нам развиваться и совершенствоваться вместе с Вами.

Статистика форума

Темы
406.639
Сообщения
465.109
Пользователи
84.553
Новый пользователь
usqav

Приложения форума для iOS и Android


У ркн там нет власти ;)
Приватные разговоры
Помощь Пользователи
    Вы не присоединились ни к одной комнате.