За последнюю неделю опубликовано 122 новых материалов.
Инструкция новичку Путеводитель по форуму Прокси для Telegram Показать подсказки , это бомба!

Скачать Приключения дигимонов: Наша военная игра / Digimon Adventure: Bokura no War (2000) DVDRip-AVC | Persona99 бесплатно через торрент

  • Поучаствуй (в качестве покупателя) в любых пяти совместных покупках (кроме завершённых и "Моментальных") и получи группу "Новичок" навсегда -> ссылка на раздел
  • Получай до 480 рублей за каждого приглашенного пользователя!
    представляем Вам очередное расширение партнерской программы, подробности описаны тут -> ссылка
  • 90% материалов доступно к скачиванию после простой регистрации!
    Если же ты хочешь скачивать материалы без требования оставлять отзывы то получи группу "Новичок", 10 способов повышения описаны тут -> ссылка
  • К сожалению количество битых ссылок растет и мы уже не можем их оперативно восстанавливать поэтому просим помощи у каждого нашего пользователя.
    С сегодняшнего дня, за каждую восстановленную ссылку мы заплатим Вам.
    Подробнее тут -> ссылка
  • Перенесем твои заслуги с другого ресурса!
    Мы понимаем как сложно прокачивать аккаунты на форумах, вроде раскачал аккаунт, а тут появляется ресурс в 100 раз круче но тоже с системой прокачки и снова качать аккаунт...
    Предлагаем вам перенести Ваши заслуги на другом подобном ресурсе к нам.
    Подробности описаны тут -> ссылка
  • Вы можете получать по 2.5% с каждой покупки и продажи на маркете! Подробности в теме Партнёрская программа

Torrent_Bot

Торрент-Бот
Бот форума
4 Окт 2016
82
186
20

Приключения дигимонов: Наша военная игра / Digimon Adventure: Bokura no War Game! / Digimon: Our War Game



Страна: Япония
Год выпуска: 2000
Жанр: приключения, комедия, фантастика
Тип: Movie
Продолжительность: короткометражный фильм, 00:40:53
Режиссер: Хосода Мамору
Студия: Toei Animation

Описание:
Когда, казалось бы, Цифровой мир уже был защищён от опасности, в
интернете появляется новый злой дигимон. Тайти с компанией вновь приходится взяться
за дигивайсы и отражать цифровую угрозу, которая может навредить всему человечеству.
Вперёд, Тайти! Вперёд, Агумон!

Релиз GSGroup


Качество: DVDRip
Тип релиза: Без хардсаба
Формат видео: MKV
Автор рипа: [Owari-Force]
Видео: x264, 944x528, 1838 Kbps, 23.976 fps, 8 bits
Аудио 1: AC-3, 48.0 KHz, 192 Kbps, 2 channels Язык Русский (в составе
контейнера) ; Озвучка: Любительский одноголосый (Persona99)
Аудио 2: AC-3, 48.0 KHz, 384 Kbps, 2 channels Язык Японский
Субтитры: встроенные Язык субтитров русский ; Перевод: Tairen
Подробные тех. данные
General
Unique ID : 182254216534269368969891004340188081701

(0x891CE2A3C4E514C9B557D1DEC2C1EE25)
Complete name : Digimon Adventure - Bokura no

War Game! [DVD][Persona99].rus.jpn.mkv
Format : Matroska
Format version : Version 2
File size : 719 MiB
Duration : 40mn 53s
Overall bit rate : 2 459 Kbps
Encoded date : UTC 2019-02-10 14:40:50
Writing application : mkvmerge v4.1.1 ('Bouncin' Back') built

on Jul 3 2010 22:54:08
Writing library : libebml v1.0.0 + libmatroska v1.0.0
Attachements : 05276_arlrdbd.ttf / Banga SSi.ttf /
candarab.ttf / candaraz.ttf / Delicious-Heavy.otf / mplantinit.ttf / tahoma.ttf
Video
ID : 1
Format : AVC
Format/Info : Advanced Video Codec
Format profile : [email protected]
Format settings, CABAC : Yes
Format settings, ReFrames : 16 frames
Codec ID : V_MPEG4/ISO/AVC
Duration : 40mn 53s
Bit rate : 1 834 Kbps
Width : 944 pixels
Height : 528 pixels
Display aspect ratio : 16:9
Frame rate mode : Constant
Frame rate : 23.976 fps
Color space : YUV
Chroma subsampling : 4:2:0
Bit depth : 8 bits
Scan type : Progressive
Bits/(Pixel*Frame) : 0.153
Stream size : 536 MiB (75%)
Writing library : x264 core 116 r2019+589 f02558f
Encoding settings : cabac=1 / ref=16 / deblock=1:-1:-2 /
analyse=0x3:0x133 / me=umh / subme=10 / psy=1 / fade_compensate=0.70 /
psy_rd=0.88:0.12 / mixed_ref=1 / me_range=32 / chroma_me=1 / trellis=2 / 8x8dct=1 /
cqm=0 / deadzone=21,11 / fast_pskip=0 / chroma_qp_offset=-3 / threads=3 /
sliced_threads=0 / nr=0 / decimate=0 / interlaced=0 / bluray_compat=0 /
constrained_intra=0 / fgo=0 / bframes=16 / b_pyramid=2 / b_adapt=2 / b_bias=0 /
direct=3 / weightb=1 / open_gop=0 / weightp=2 / keyint=480 / keyint_min=24 /
scenecut=40 / intra_refresh=0 / rc_lookahead=100 / rc=crf / mbtree=1 / crf=18.0 /
qcomp=0.65 / qpmin=8 / qpmax=44 / qpstep=4 / ip_ratio=1.40 / aq=1:0.75
Default : Yes
Forced : No
Color range : Limited
Matrix coefficients : BT.601

Audio #1
ID : 2
Format : AC-3
Format/Info : Audio Coding 3
Mode extension : CM (complete main)
Format settings, Endianness : Big
Muxing mode : Header stripping
Codec ID : A_AC3
Duration : 40mn 53s
Bit rate mode : Constant
Bit rate : 192 Kbps
Channel(s) : 2 channels
Channel positions : Front: L R
Sampling rate : 48.0 KHz
Compression mode : Lossy
Stream size : 56.2 MiB (8%)
Title : Persona99
Language : Russian
Default : Yes
Forced : No

Audio #2
ID : 3
Format : AC-3
Format/Info : Audio Coding 3
Mode extension : CM (complete main)
Format settings, Endianness : Big
Muxing mode : Header stripping
Codec ID : A_AC3
Duration : 40mn 53s
Bit rate mode : Constant
Bit rate : 384 Kbps
Channel(s) : 2 channels
Channel positions : Front: L R
Sampling rate : 48.0 KHz
Compression mode : Lossy
Stream size : 112 MiB (16%)
Language : Japanese
Default : No
Forced : No

Text
ID : 4
Format : ASS
Codec ID : S_TEXT/ASS
Codec ID/Info : Advanced Sub Station Alpha
Compression mode : Lossless
Language : Russian
Default : No
Forced : No
Скриншоты
 

Вложения

  • 15,9 KB Просмотры: 0
    Личеров 0
    Сидеров 0
    Файлов 1
    Объем 719,1 MB

Привет!

Мы группа людей которые решили помочь другим в решении их проблем, а так же пользователям с поиском самых свежих и качественных инфопродуктов. За 4 с небольшим месяца мы создали этот форум на который заходят ежедневно тысячи человек и посещаемость постоянно растёт. Мы создали панель лицензирования для защиты PHP скриптов от воровства и SEO панель для мониторинга наших сайтов и выбора верной стратегии их развития. Мы надеемся что то что мы создали пригодится Вам и возможно Вы поможете нам развиваться и совершенствоваться вместе с Вами.

Статистика форума

Темы
412.278
Сообщения
471.366
Пользователи
91.811
Новый пользователь
Austeen

Приложения форума для iOS и Android


У ркн там нет власти ;)
Приватные разговоры
Помощь Пользователи
    Вы не присоединились ни к одной комнате.