За последнюю неделю опубликовано 81 новых материалов.
Инструкция новичку Путеводитель по форуму Прокси для Telegram Показать подсказки , это бомба!

Скачать Приключения Али-Бабы и сорока разбойников (1979) DVDRip-AVC бесплатно через торрент

  • Поучаствуй (в качестве покупателя) в любых пяти совместных покупках (кроме завершённых и "Моментальных") и получи группу "Новичок" навсегда -> ссылка на раздел
  • Получай до 480 рублей за каждого приглашенного пользователя!
    представляем Вам очередное расширение партнерской программы, подробности описаны тут -> ссылка
  • 90% материалов доступно к скачиванию после простой регистрации!
    Если же ты хочешь скачивать материалы без требования оставлять отзывы то получи группу "Новичок", 10 способов повышения описаны тут -> ссылка
  • К сожалению количество битых ссылок растет и мы уже не можем их оперативно восстанавливать поэтому просим помощи у каждого нашего пользователя.
    С сегодняшнего дня, за каждую восстановленную ссылку мы заплатим Вам.
    Подробнее тут -> ссылка
  • Перенесем твои заслуги с другого ресурса!
    Мы понимаем как сложно прокачивать аккаунты на форумах, вроде раскачал аккаунт, а тут появляется ресурс в 100 раз круче но тоже с системой прокачки и снова качать аккаунт...
    Предлагаем вам перенести Ваши заслуги на другом подобном ресурсе к нам.
    Подробности описаны тут -> ссылка
  • Вы можете получать по 2.5% с каждой покупки и продажи на маркете! Подробности в теме Партнёрская программа
Если Вы не хотите скачивать, Вы всегда можетепосмотретьонлайн, просто нажмите кнопку ниже :

Открыть плеер

Torrent_Bot

Торрент-Бот
Бот форума
4 Окт 2016
104
152
20
Страна: СССР, Индия
Жанр: приключения, мелодрама, семейный
Год выпуска: 1979
Продолжительность: 02:09:44
Перевод: Не требуется


Режиссер: Латиф Файзиев, Умеш Мехра


В ролях: Дхармендра(Али-Баба), Хема Малини(Марджина), Зинат Аман(Фатима), Прем Чопра(Шамшер), Фрунзик Мкртчян(Мустафа), Закир Мухамеджанов, Софико Чиаурели(мать Али-Бабы), Мадан Пури(отец Али-Бабы), Якуб Ахмедов(Брат Али-Бабы Касым), Ролан Быков(визирь / предводитель разбойников), Ходжадурды Нарлиев, Хамза Умаров


Описание: В древнем восточном городе Гупьабаде жил веселый и хитроумный дровосек Али-Баба с матерью и братом Касы-мом. Однажды Али-Баба получил письмо от отца, который ушел с караваном и пропал, и отправился за ним в Индию. Там он спас принцессу Марджину, дочь раджи, и вместе с ней вернулся в Гульабад, а его отец погиб во время нападения разбойников. Дома Али-Баба узнал о том, что разбойники взорвали плотину и лишили город воды. Много приключений выпало на долю Али-Бабы. Ему посчастливилось узнать тайну пещеры разбойников, в которой хранились награбленные ими сокровища. Благодаря хитрости и ловкости Али-Бабе удалось избавиться от разбойников. Вместе с друзьями он восстановил плотину, вернув жителям Гульабада воду.






Качество: DVDRip
Контейнер: MKV

Видео: AVC, 712x436 @ 1012x436 (2.35:1), 1404 kbps, 25 fps, 0,181 bpp
Аудио: русский / AC3 / 2.0 / 48 kHz / 192 kbps
Навигация по главам: есть


Media Info
Format : Matroska
Format version : Version 2
File size : 1.45 GiB
Duration : 2h 9mn
Overall bit rate : 1 598 Kbps
Movie name : = Приключения Алибабы и 40 разбойников / Alibaba Aur 40 Chor DVDRip by SC Kosmos =
Encoded date : UTC 2014-08-16 18:21:47
Writing application : mkvmerge v3.3.0 ('Language') gebaut am Mar 24 2010 14:59:24
Writing library : libebml v0.8.0 + libmatroska v0.9.0

Video
ID : 1
Format : AVC
Format/Info : Advanced Video Codec
Format profile : High@L4.1
Format settings, CABAC : Yes
Format settings, ReFrames : 12 frames
Codec ID : V_MPEG4/ISO/AVC
Duration : 2h 9mn
Bit rate : 1 404 Kbps
Width : 712 pixels
Height : 436 pixels
Display aspect ratio : 2.35:1
Original display aspect ratio : 2.35:1
Frame rate : 25.000 fps
Color space : YUV
Chroma subsampling : 4:2:0
Bit depth : 8 bits
Scan type : Progressive
Bits/(Pixel*Frame) : 0.181
Stream size : 1.25 GiB (86%)
Title : Приключения Алибабы и 40 разбойников / Alibaba Aur 40 Chor DVDRip by SC Kosmos
Writing library : x264 core 142 r2431 ac76440
Encoding settings : cabac=1 / ref=12 / deblock=1:-3:-3 / analyse=0x3:0x113 / me=umh / subme=11 / psy=1 / psy_rd=1.00:0.00 / mixed_ref=1 / me_range=32 / chroma_me=1 / trellis=2 / 8x8dct=1 / cqm=0 / deadzone=21,11 / fast_pskip=0 / chroma_qp_offset=-2 / threads=12 / lookahead_threads=1 / sliced_threads=0 / nr=0 / decimate=1 / interlaced=0 / bluray_compat=0 / constrained_intra=0 / bframes=12 / b_pyramid=2 / b_adapt=1 / b_bias=0 / direct=3 / weightb=1 / open_gop=0 / weightp=2 / keyint=250 / keyint_min=25 / scenecut=40 / intra_refresh=0 / rc_lookahead=40 / rc=2pass / mbtree=0 / bitrate=1404 / ratetol=1.0 / qcomp=0.60 / qpmin=0 / qpmax=69 / qpstep=4 / cplxblur=20.0 / qblur=0.5 / vbv_maxrate=62500 / vbv_bufsize=78125 / nal_hrd=none / filler=0 / ip_ratio=1.40 / pb_ratio=1.30 / aq=1:1.00
Language : Russian
Default : No
Forced : No

Audio
ID : 2
Format : AC-3
Format/Info : Audio Coding 3
Mode extension : CM (complete main)
Codec ID : A_AC3
Duration : 2h 9mn
Bit rate mode : Constant
Bit rate : 192 Kbps
Channel(s) : 2 channels
Channel positions : Front: L R
Sampling rate : 48.0 KHz
Bit depth : 16 bits
Compression mode : Lossy
Stream size : 178 MiB (12%)
Language : Russian
Default : Yes
Forced : No

Menu
00:00:00.000 : en:Chapter 01
00:02:00.080 : en:Chapter 02
00:14:00.160 : en:Chapter 03
00:28:55.840 : en:Chapter 04
00:36:31.000 : en:Chapter 05
00:55:20.640 : en:Chapter 06
01:09:09.920 : en:Chapter 07
01:19:20.720 : en:Chapter 08
01:27:25.920 : en:Chapter 09
01:41:29.840 : en:Chapter 10
01:54:46.880 : en:Chapter 11



Скриншоты


 

Вложения

  • 15,5 KB Просмотры: 1
    Личеров 0
    Сидеров 0
    Файлов 1
    Объем 1,4 GB

Привет!

Мы группа людей которые решили помочь другим в решении их проблем, а так же пользователям с поиском самых свежих и качественных инфопродуктов. За 4 с небольшим месяца мы создали этот форум на который заходят ежедневно тысячи человек и посещаемость постоянно растёт. Мы создали панель лицензирования для защиты PHP скриптов от воровства и SEO панель для мониторинга наших сайтов и выбора верной стратегии их развития. Мы надеемся что то что мы создали пригодится Вам и возможно Вы поможете нам развиваться и совершенствоваться вместе с Вами.

Статистика форума

Темы
404.542
Сообщения
461.456
Пользователи
80.099
Новый пользователь
анатолий1236

Приложения форума для iOS и Android


У ркн там нет власти ;)
Приватные разговоры
Помощь Пользователи
    Вы не присоединились ни к одной комнате.