За последнюю неделю опубликовано 57 новых материалов.
Инструкция новичку Путеводитель по форуму Прокси для Telegram Показать подсказки , это бомба!

Скачать Приди ко мне / Другой агнец / The Other Lamb (2019) BDRemux 1080p от ExKinoRay | iTunes бесплатно через торрент

  • Поучаствуй (в качестве покупателя) в любых пяти совместных покупках (кроме завершённых и "Моментальных") и получи группу "Новичок" навсегда -> ссылка на раздел
  • Получай до 480 рублей за каждого приглашенного пользователя!
    представляем Вам очередное расширение партнерской программы, подробности описаны тут -> ссылка
  • 90% материалов доступно к скачиванию после простой регистрации!
    Если же ты хочешь скачивать материалы без требования оставлять отзывы то получи группу "Новичок", 10 способов повышения описаны тут -> ссылка
  • К сожалению количество битых ссылок растет и мы уже не можем их оперативно восстанавливать поэтому просим помощи у каждого нашего пользователя.
    С сегодняшнего дня, за каждую восстановленную ссылку мы заплатим Вам.
    Подробнее тут -> ссылка
  • Перенесем твои заслуги с другого ресурса!
    Мы понимаем как сложно прокачивать аккаунты на форумах, вроде раскачал аккаунт, а тут появляется ресурс в 100 раз круче но тоже с системой прокачки и снова качать аккаунт...
    Предлагаем вам перенести Ваши заслуги на другом подобном ресурсе к нам.
    Подробности описаны тут -> ссылка
  • Вы можете получать по 2.5% с каждой покупки и продажи на маркете! Подробности в теме Партнёрская программа
Если Вы не хотите скачивать, Вы всегда можетепосмотретьонлайн, просто нажмите кнопку ниже :

Открыть плеер

Torrent_Bot

Торрент-Бот
Бот форума
4 Окт 2016
92
163
20




Название: Приди ко мне
Оригинальное название: The Other Lamb
Год выхода: 2019
Жанр: драма, ужасы
Режиссер: Малгожата Шумовска
В ролях: Рэффи Кэссиди, Михиль Хаусман, Денис Гоф, Ив Коннолли, Келли Кэмпбелл, Изабель Коннолли, Эльве Коули, Ирен Келлехер, Шарлотта Мур, Джейн Херберт


Описание: Молодая девушка с самого рождения живет в лесу. Ее мир состоит только из женщин и единственного мужчины — загадочного и деспотичного Пастыря. Он стал для женщин отцом, учителем, любовником и единственным другом. Со временем девушка начинает подвергать сомнению окружающую ее действительность и решает раскрыть шокирующую правду.



Страна: Ирландия, Бельгия, США
Продолжительность: 01:36:48
Перевод: Профессиональный многоголосый | iTunes


Формат: MKV
Качество: BDRemux 1080p
Видео: MPEG-4 AVC, 1920x1080 (16:9), 23.976 fps, 11.7 Мbps, 0.249 bit/pixel
Источник: |The Other Lamb 2019 1080p Blu-ray AVC DTS-HD MA 5.1-NoGroup|
Аудио 1: 48 kHz, AC3, 5.1, 384 Kbps | MVO | RUS |
Аудио 2: 48 kHz, DTS-HD MA, 5.1, 2028 Kbps | original | ENG |
Субтитры: Русские (Full (Наталья Раевская)), английские


ОтчетМедиаИнфо
General
Unique ID : 197891535365422206217049116221055261779 (0x94E085FB95451471802650AB53395C53)
Complete name : D:The.Other.Lamb.2019.BDRemux.1080p.ExKinoRay.mkv
Format : Matroska
Format version : Version 4
File size : 18.5 GiB
Duration : 1 h 36 min
Overall bit rate mode : Variable
Overall bit rate : 27.4 Mb/s
Movie name : The Other Lamb 2019 from ExKinoRay
Encoded date : UTC 2020-07-17 23:36:51
Writing application : mkvmerge v7.3.0 ('Nouages') 64bit built on Oct 22 2014 18:53:34
Writing library : libebml v1.3.0 + libmatroska v1.4.1

Video
ID : 1
Format : AVC
Format/Info : Advanced Video Codec
Format profile : [email protected]
Format settings : CABAC / 4 Ref Frames
Format settings, CABAC : Yes
Format settings, Reference : 4 frames
Codec ID : V_MPEG4/ISO/AVC
Duration : 1 h 36 min
Bit rate mode : Variable
Bit rate : 25.0 Mb/s
Maximum bit rate : 40.0 Mb/s
Width : 1 920 pixels
Height : 1 080 pixels
Display aspect ratio : 16:9
Frame rate mode : Constant
Frame rate : 23.976 (24000/1001) FPS
Color space : YUV
Chroma subsampling : 4:2:0
Bit depth : 8 bits
Scan type : Progressive
Bits/(Pixel*Frame) : 0.502
Stream size : 16.9 GiB (91%)
Language : English
Default : Yes
Forced : No
Color range : Limited
Color primaries : BT.709
Transfer characteristics : BT.709
Matrix coefficients : BT.709

Audio #1
ID : 2
Format : AC-3
Format/Info : Audio Coding 3
Commercial name : Dolby Digital
Codec ID : A_AC3
Duration : 1 h 36 min
Bit rate mode : Constant
Bit rate : 384 kb/s
Channel(s) : 6 channels
Channel layout : L R C LFE Ls Rs
Sampling rate : 48.0 kHz
Frame rate : 31.250 FPS (1536 SPF)
Compression mode : Lossy
Stream size : 266 MiB (1%)
Title : itunes
Language : Russian
Service kind : Complete Main
Default : Yes
Forced : No

Audio #2
ID : 3
Format : DTS XLL
Format/Info : Digital Theater Systems
Commercial name : DTS-HD Master Audio
Codec ID : A_DTS
Duration : 1 h 36 min
Bit rate mode : Variable
Bit rate : 2 028 kb/s
Channel(s) : 6 channels
Channel layout : C L R Ls Rs LFE
Sampling rate : 48.0 kHz
Frame rate : 93.750 FPS (512 SPF)
Bit depth : 16 bits
Compression mode : Lossless
Stream size : 1.37 GiB (7%)
Title : original
Language : English
Default : No
Forced : No

Text #1
ID : 4
Format : UTF-8
Codec ID : S_TEXT/UTF8
Codec ID/Info : UTF-8 Plain Text
Duration : 1 h 32 min
Bit rate : 32 b/s
Count of elements : 474
Stream size : 22.2 KiB (0%)
Title : Full [Enigma]
Language : Russian
Default : No
Forced : No

Text #2
ID : 5
Format : UTF-8
Codec ID : S_TEXT/UTF8
Codec ID/Info : UTF-8 Plain Text
Duration : 1 h 31 min
Bit rate : 18 b/s
Count of elements : 474
Stream size : 12.5 KiB (0%)
Title : Full
Language : English
Default : No
Forced : No

Menu
00:00:00.000 : :00:00:00.000
00:09:13.845 : :00:09:13.845
00:14:48.930 : :00:14:48.930
00:24:19.625 : :00:24:19.625
00:34:43.373 : :00:34:43.373
00:39:07.679 : :00:39:07.679
00:48:41.627 : :00:48:41.627
00:56:37.394 : :00:56:37.394
01:03:48.241 : :01:03:48.241
01:15:00.371 : :01:15:00.371
01:25:01.763 : :01:25:01.763
01:32:56.070 : :01:32:56.070







Релиз от:

Автор релиза:
 

Вложения

  • 93,5 KB Просмотры: 0
    Личеров 0
    Сидеров 0
    Файлов 1
    Объем 18,5 GB

Привет!

Мы группа людей которые решили помочь другим в решении их проблем, а так же пользователям с поиском самых свежих и качественных инфопродуктов. За 4 с небольшим месяца мы создали этот форум на который заходят ежедневно тысячи человек и посещаемость постоянно растёт. Мы создали панель лицензирования для защиты PHP скриптов от воровства и SEO панель для мониторинга наших сайтов и выбора верной стратегии их развития. Мы надеемся что то что мы создали пригодится Вам и возможно Вы поможете нам развиваться и совершенствоваться вместе с Вами.

Статистика форума

Темы
406.698
Сообщения
465.162
Пользователи
84.787
Новый пользователь
Freckle

Приложения форума для iOS и Android


У ркн там нет власти ;)
Приватные разговоры
Помощь Пользователи
    Вы не присоединились ни к одной комнате.