За последнюю неделю опубликовано 66 новых материалов.
Инструкция новичку Путеводитель по форуму Прокси для Telegram Показать подсказки , это бомба!

Скачать Преждевременные экзамены / Экзамены некстати / Изпити по никое време / Izpiti po nikoe vreme (1974) DVDRip | Sub бесплатно через торрент

  • Поучаствуй (в качестве покупателя) в любых пяти совместных покупках (кроме завершённых и "Моментальных") и получи группу "Новичок" навсегда -> ссылка на раздел
  • Получай до 480 рублей за каждого приглашенного пользователя!
    представляем Вам очередное расширение партнерской программы, подробности описаны тут -> ссылка
  • 90% материалов доступно к скачиванию после простой регистрации!
    Если же ты хочешь скачивать материалы без требования оставлять отзывы то получи группу "Новичок", 10 способов повышения описаны тут -> ссылка
  • К сожалению количество битых ссылок растет и мы уже не можем их оперативно восстанавливать поэтому просим помощи у каждого нашего пользователя.
    С сегодняшнего дня, за каждую восстановленную ссылку мы заплатим Вам.
    Подробнее тут -> ссылка
  • Перенесем твои заслуги с другого ресурса!
    Мы понимаем как сложно прокачивать аккаунты на форумах, вроде раскачал аккаунт, а тут появляется ресурс в 100 раз круче но тоже с системой прокачки и снова качать аккаунт...
    Предлагаем вам перенести Ваши заслуги на другом подобном ресурсе к нам.
    Подробности описаны тут -> ссылка
  • Вы можете получать по 2.5% с каждой покупки и продажи на маркете! Подробности в теме Партнёрская программа
Если Вы не хотите скачивать, Вы всегда можетепосмотретьонлайн, просто нажмите кнопку ниже :

Открыть плеер

Torrent_Bot

Торрент-Бот
Бот форума
4 Окт 2016
92
163
20



Информация о фильме
Название: Преждевременные экзамены / Экзамены некстати
Оригинальное название: Изпити по никое време / Izpiti po nikoe vreme
Год выхода: 1974
Жанр: семейный
Режиссер: Иванка Грыбчева
В ролях: Димитар Ганев, Войцех Тодоров, Ани Бакалова, Георги Русев, Янко Янков, Огнян Желязков, Николай Теохаров, Михаил Лазароу, Вера Салиева, Петя Миладинова, Димитр Димитров, Росица Данаилова, Пейчо Пейчев, Светослав Пеев, Георгий Русаков, Мария Карел

О фильме:
Две новеллы, в которых затрагиваются проблемы честности и долга, а также расхождения в желаниях родителей и детей.
1. ИCКУШЕНИЕ. Это новелла о человеческой честности. Мальчик находит кошелек с деньгами. Он говорит о находке своим товарищам и они все вместе ищут хозяина пропажи. Оказывается, что потеряла кошелек Иванова, вредная соседка, которая всегда упрекала ребят и несправедливо их обвиняла. В конечном итоге дети за свои добрые побуждения получают в вознаграждение лишь упреки.
2. КОНЦЕРТ ДЛЯ СКРИПКИ. Митя посещает уроки скрипки. Его мама видит в своем ребенке гениального музыканта, выступающего с сольными концертами. Но Мите настолько неприятны занятия музыкой, что он договаривается со своим другом из младших классов, и тот ходит вместо него к репетитору. Эта афера раскрывается во время школьного концерта. Но амбиции Митиной мамы непоколебимы и она решает, что раз ее сыну не по душе скрипка, то следует попробовать... пианино.



Производство: Болгария / Киностудия «Бояна»
Продолжительность: 01:09:28
Перевод: русские субтитры от korostilewlad

Файл
Качество: DVDRip
Формат: AVI
Видео: XviD, 720x544 (4:3), 25.000 fps, 2226 kbps, 0.227 bit/pixel
Аудио: болгарский, AC3 2.0, 48 kHz, 224 kbps
Субтитры: русские внешние, SRT

MediaInfo
Общее
Полное имя : Izpiti.Po.Nikoe.Vreme.1974.DVDRip.avi
Формат : AVI
Формат/Информация : Audio Video Interleave
Размер файла : 1,19 Гбайт
Продолжительность : 1 ч. 9 м.
Общий поток : 2 456 Кбит/сек
Программа кодирования : VirtualDubModRus 1.5.10.2 (build 2542/release)
Библиотека кодирования : VirtualDubMod build 2542/release

Видео
Идентификатор : 0
Формат : MPEG-4 Visual
Профиль формата : Advanced [email protected]
Настройки формата : BVOP1
Параметр BVOP формата : 1
Параметр QPel формата : Нет
Параметр GMC формата : Без точки перехода
Параметр матрицы формата : Default (MPEG)
Идентификатор кодека : XVID
Идентификатор кодека/Подсказка : XviD
Продолжительность : 1 ч. 9 м.
Битрейт : 2 226 Кбит/сек
Ширина : 720 пикселей
Высота : 544 пикселя
Соотношение сторон : 4:3
Частота кадров : 25,000 кадров/сек
Цветовое пространство : YUV
Субдискретизация насыщенности : 4:2:0
Битовая глубина : 8 бит
Тип развёртки : Прогрессивная
Метод сжатия : С потерями
Бит/(Пиксели*Кадры) : 0.227
Размер потока : 1,08 Гбайт (91%)
Библиотека кодирования : XviD 67

Аудио
Идентификатор : 1
Формат : AC-3
Формат/Информация : Audio Coding 3
Коммерческое название : Dolby Digital
Идентификатор кодека : 2000
Продолжительность : 1 ч. 9 м.
Вид битрейта : Постоянный
Битрейт : 224 Кбит/сек
Каналы : 2 канала
Channel layout : L R
Частота : 48,0 КГц
Частота кадров : 31,250 кадров/сек (1536 SPF)
Битовая глубина : 16 бит
Метод сжатия : С потерями
Задержка видео : 5 мс.
Размер потока : 111 Мбайт (9%)
Выравнивание : Разделение по промежуткам
Продолжительность промежутка : 137 мс. (3,43 видеокадра)
Время предзагрузки промежутка : 548 мс.
Service kind : Complete Main
Скриншоты
Релиз от:
 

Вложения

  • 13 KB Просмотры: 0
    Личеров 0
    Сидеров 0
    Файлов 2
    Объем 1,2 GB

Привет!

Мы группа людей которые решили помочь другим в решении их проблем, а так же пользователям с поиском самых свежих и качественных инфопродуктов. За 4 с небольшим месяца мы создали этот форум на который заходят ежедневно тысячи человек и посещаемость постоянно растёт. Мы создали панель лицензирования для защиты PHP скриптов от воровства и SEO панель для мониторинга наших сайтов и выбора верной стратегии их развития. Мы надеемся что то что мы создали пригодится Вам и возможно Вы поможете нам развиваться и совершенствоваться вместе с Вами.

Статистика форума

Темы
406.677
Сообщения
465.122
Пользователи
84.734
Новый пользователь
andrey564

Приложения форума для iOS и Android


У ркн там нет власти ;)
Приватные разговоры
Помощь Пользователи
    Вы не присоединились ни к одной комнате.