За последнюю неделю опубликовано 29 новых материалов.
Инструкция новичку Путеводитель по форуму Прокси для Telegram Показать подсказки , это бомба!

Скачать Прежде чем ты что-то скажешь / Before Anything You Say (2016) HDRip-AVC | L2 бесплатно через торрент

  • Поучаствуй (в качестве покупателя) в любых пяти совместных покупках (кроме завершённых и "Моментальных") и получи группу "Новичок" навсегда -> ссылка на раздел
  • Получай до 480 рублей за каждого приглашенного пользователя!
    представляем Вам очередное расширение партнерской программы, подробности описаны тут -> ссылка
  • 90% материалов доступно к скачиванию после простой регистрации!
    Если же ты хочешь скачивать материалы без требования оставлять отзывы то получи группу "Новичок", 10 способов повышения описаны тут -> ссылка
  • К сожалению количество битых ссылок растет и мы уже не можем их оперативно восстанавливать поэтому просим помощи у каждого нашего пользователя.
    С сегодняшнего дня, за каждую восстановленную ссылку мы заплатим Вам.
    Подробнее тут -> ссылка
  • Перенесем твои заслуги с другого ресурса!
    Мы понимаем как сложно прокачивать аккаунты на форумах, вроде раскачал аккаунт, а тут появляется ресурс в 100 раз круче но тоже с системой прокачки и снова качать аккаунт...
    Предлагаем вам перенести Ваши заслуги на другом подобном ресурсе к нам.
    Подробности описаны тут -> ссылка
  • Вы можете получать по 2.5% с каждой покупки и продажи на маркете! Подробности в теме Партнёрская программа
Если Вы не хотите скачивать, Вы всегда можетепосмотретьонлайн, просто нажмите кнопку ниже :

Открыть плеер

Torrent_Bot

Торрент-Бот
Бот форума
4 Окт 2016
93
155
20
Информация о фильме
Название: Прежде чем ты что-то скажешь
Оригинальное название: Before Anything You Say
Год выхода: 2016
Жанр: Драма
Режиссер: Шела Картер
В ролях: Дарси Фер, Кристен Харрис, Джон Блютнер, Тони Реймер, Грэхэм Эшмор, Девон Унрау, Руслана Борка, Хейли Рода, Виктория Эмили Хилл и другие
О фильме:
Действие фильма происходит в Париже и Виннипеге, где семейная пара пытается сохранить чувства и семью, несмотря на все трудности и противоречия.



Страна: Канада, Darkling Pictures
Продолжительность: 01:01:21
Перевод: Любительский (двухголосый закадровый) | HiWay Grope

Файл
Кодек: MPEG-4 AVC/x.264
Качество: HDRip-AVC
Видео: 992x536, 29.970 fps, ~1728 kbps, 0.108 bit/pixel
Звук:
Аудио rus: AC, 48 kHz, 2 ch, 192 Kbps
Субтитры: отсутствуют

Реклама: присутствует

Семпл

MediaInfo:
General
Unique ID : 208372377490979176142223655671159458707 (0x9CC30F654A16DEEED5F27028C9EE0B93)
Complete name : D:Before.Anything.You.Say.2016.HDRip-AVC.HiWayGropeBefore.Anything.You.Say.2016.HDRip-AVC.HiWayGrope.mkv
Format : Matroska
Format version : Version 4 / Version 2
File size : 844 MiB
Duration : 1 h 1 min
Overall bit rate : 1 922 kb/s
Encoded date : UTC 2018-09-16 14:13:17
Writing application : mkvmerge v25.0.0 ('Prog Noir') 64-bit
Writing library : libebml v1.3.6 + libmatroska v1.4.9

Video
ID : 1
Format : AVC
Format/Info : Advanced Video Codec
Format profile : Main@L3.1
Format settings : CABAC / 4 Ref Frames
Format settings, CABAC : Yes
Format settings, RefFrames : 4 frames
Codec ID : V_MPEG4/ISO/AVC
Duration : 1 h 1 min
Bit rate : 1 728 kb/s
Width : 992 pixels
Height : 536 pixels
Display aspect ratio : 1.85:1
Frame rate mode : Constant
Frame rate : 29.970 (30000/1001) FPS
Standard : NTSC
Color space : YUV
Chroma subsampling : 4:2:0
Bit depth : 8 bits
Scan type : Progressive
Bits/(Pixel*Frame) : 0.108
Stream size : 758 MiB (90%)
Language : English
Default : Yes
Forced : No
Color range : Limited
Color primaries : BT.601 NTSC
Transfer characteristics : BT.601
Matrix coefficients : BT.601

Audio
ID : 2
Format : AC-3
Format/Info : Audio Coding 3
Codec ID : A_AC3
Duration : 1 h 1 min
Bit rate mode : Constant
Bit rate : 192 kb/s
Channel(s) : 2 channels
Channel positions : Front: L R
Sampling rate : 48.0 kHz
Frame rate : 31.250 FPS (1536 SPF)
Bit depth : 16 bits
Compression mode : Lossy
Stream size : 84.3 MiB (10%)
Language : Russian
Service kind : Complete Main
Default : Yes
Forced : No
Скриншоты
Релиз от: HiWay Grope
 

Вложения

  • 17,5 KB Просмотры: 1
    Личеров 0
    Сидеров 0
    Файлов 1
    Объем 843,6 MB

Привет!

Мы группа людей которые решили помочь другим в решении их проблем, а так же пользователям с поиском самых свежих и качественных инфопродуктов. За 4 с небольшим месяца мы создали этот форум на который заходят ежедневно тысячи человек и посещаемость постоянно растёт. Мы создали панель лицензирования для защиты PHP скриптов от воровства и SEO панель для мониторинга наших сайтов и выбора верной стратегии их развития. Мы надеемся что то что мы создали пригодится Вам и возможно Вы поможете нам развиваться и совершенствоваться вместе с Вами.

Статистика форума

Темы
406.535
Сообщения
464.632
Пользователи
83.207
Новый пользователь
kingartur9719

Приложения форума для iOS и Android


У ркн там нет власти ;)
Приватные разговоры
Помощь Пользователи
    Вы не присоединились ни к одной комнате.