За последнюю неделю опубликовано 59 новых материалов.
Инструкция новичку Путеводитель по форуму Прокси для Telegram Показать подсказки , это бомба!

Скачать Прежде, чем расстаться (1984) DVDRip-AVC от KORSAR бесплатно через торрент

  • Поучаствуй (в качестве покупателя) в любых пяти совместных покупках (кроме завершённых и "Моментальных") и получи группу "Новичок" навсегда -> ссылка на раздел
  • Получай до 480 рублей за каждого приглашенного пользователя!
    представляем Вам очередное расширение партнерской программы, подробности описаны тут -> ссылка
  • 90% материалов доступно к скачиванию после простой регистрации!
    Если же ты хочешь скачивать материалы без требования оставлять отзывы то получи группу "Новичок", 10 способов повышения описаны тут -> ссылка
  • К сожалению количество битых ссылок растет и мы уже не можем их оперативно восстанавливать поэтому просим помощи у каждого нашего пользователя.
    С сегодняшнего дня, за каждую восстановленную ссылку мы заплатим Вам.
    Подробнее тут -> ссылка
  • Перенесем твои заслуги с другого ресурса!
    Мы понимаем как сложно прокачивать аккаунты на форумах, вроде раскачал аккаунт, а тут появляется ресурс в 100 раз круче но тоже с системой прокачки и снова качать аккаунт...
    Предлагаем вам перенести Ваши заслуги на другом подобном ресурсе к нам.
    Подробности описаны тут -> ссылка
  • Вы можете получать по 2.5% с каждой покупки и продажи на маркете! Подробности в теме Партнёрская программа
Если Вы не хотите скачивать, Вы всегда можетепосмотретьонлайн, просто нажмите кнопку ниже :

Открыть плеер

Torrent_Bot

Торрент-Бот
Бот форума
4 Окт 2016
92
163
20


Прежде, чем расстаться
Жанр: Мелодрама
Год выпуска: 1984
Режиссер: Александр Косарев
В ролях: Наталья Фатеева, Иван Лапиков, Клара Лучко, Леонид Куравлев, Юрий Антонов, Николай Караченцов, Ирина Короткова, Игорь Старыгин, Игорь Костолевский, Татьяна Васильева, Татьяна Аксюта, Луиза Мосендз, Семен Фарада, Юрий Николаев

О фильме:
Действие фильма происходит в маленьком аэропорту на дальнем севере СССР приблизительно в 1980 годы.
Несколько пассажиров пережидают нелётную погоду. Оказывается что один из пассажиров американец, профессор биолог. Во времена Великой Отечественной войны аэропорт был военным и был перевалочным пунктом для перегона американских военных самолётов. Здесь потерпел аварию его отец, которого спасла от смерти русская женщина Антонина. Она до сих пор работает в аэропорту буфетчицей.



Страна: СССР
Производство: Мосфильм
Продолжительность: 01:19:15
Перевод: Не требуется

Файл
Формат: MKV
Качество: DVDRip-AVC
Видео: MPEG-4 AVC, [email protected], 25 fps, 2500 Кбит/с
Аудио: Русский, AC3, 2 ch, 384 Кбит/с
Cубтитры: нет
Навигация по главам: есть

Mediainfo
x264 [info]: frame I:563 Avg QP:17.54 size: 57450
x264 [info]: frame P:25768 Avg QP:19.23 size: 31604
x264 [info]: frame B:92547 Avg QP:20.87 size: 6905
x264 [info]: consecutive B-frames: 1.5% 2.4% 7.8% 17.4% 24.0% 43.0% 3.1% 0.5% 0.1% 0.2% 0.0%

General
Unique ID : 303601774491232064849131535123958384600 (0xE467932A6E0382EFACC3A697BDAAC7D8)
Complete name : S:FILMSПрежде, чем расстаться (1984) DVDRip-AVC - KORSAR.mkv
Format : Matroska
Format version : Version 4 / Version 2
File size : 1.60 GiB
Duration : 1 h 19 min
Overall bit rate : 2 885 kb/s
Movie name : Прежде, чем расстаться (1984)_rip_by_Cthulhu
Encoded date : UTC 2020-04-10 10:00:57
Writing application : mkvmerge v37.0.0 ('Leave It') 64-bit
Writing library : libebml v1.3.9 + libmatroska v1.5.2
Cover : Yes
Attachments : cover23.jpg

Video
ID : 1
Format : AVC
Format/Info : Advanced Video Codec
Format profile : [email protected]
Format settings : CABAC / 16 Ref Frames
Format settings, CABAC : Yes
Format settings, ReFrames : 16 frames
Codec ID : V_MPEG4/ISO/AVC
Duration : 1 h 19 min
Bit rate : 2 500 kb/s
Width : 694 pixels
Height : 428 pixels
Display aspect ratio : 1.729
Original display aspect rat : 1.730
Frame rate mode : Constant
Frame rate : 25.000 FPS
Color space : YUV
Chroma subsampling : 4:2:0
Bit depth : 8 bits
Scan type : Progressive
Bits/(Pixel*Frame) : 0.337
Stream size : 1.38 GiB (87%)
Writing library : x264 core 152 r2851kMod ba24899
Encoding settings : cabac=1 / ref=16 / deblock=1:-1:-1 / analyse=0x3:0x133 / me=umh / subme=11 / psy=1 / fade_compensate=0.00 / psy_rd=1.00:0.05 / mixed_ref=1 / me_range=48 / chroma_me=1 / trellis=2 / 8x8dct=1 / cqm=0 / deadzone=21,11 / fast_pskip=0 / chroma_qp_offset=-3 / threads=13 / lookahead_threads=3 / sliced_threads=0 / nr=0 / decimate=1 / interlaced=0 / bluray_compat=0 / constrained_intra=0 / bframes=10 / b_pyramid=2 / b_adapt=2 / b_bias=0 / direct=3 / weightb=1 / open_gop=0 / weightp=2 / keyint=250 / keyint_min=25 / scenecut=40 / intra_refresh=0 / rc_lookahead=60 / rc=crf / mbtree=0 / crf=17.5000 / qcomp=0.62 / qpmin=0 / qpmax=39 / qpstep=4 / vbv_maxrate=50000 / vbv_bufsize=62500 / crf_max=0.0 / nal_hrd=none / filler=0 / ip_ratio=1.40 / pb_ratio=1.30 / aq=2:1.00
Language : Russian
Default : Yes
Forced : No
Color range : Limited
Color primaries : BT.601 PAL
Transfer characteristics : BT.470 System B/G
Matrix coefficients : BT.470 System B/G

Audio
ID : 2
Format : AC-3
Format/Info : Audio Coding 3
Commercial name : Dolby Digital
Codec ID : A_AC3
Duration : 1 h 19 min
Bit rate mode : Constant
Bit rate : 384 kb/s
Channel(s) : 2 channels
Channel layout : L R
Sampling rate : 48.0 kHz
Frame rate : 31.250 FPS (1536 SPF)
Bit depth : 16 bits
Compression mode : Lossy
Stream size : 218 MiB (13%)
Language : Russian
Service kind : Complete Main
Default : Yes
Forced : No

Menu
00:00:00.000 : en:Chapter 1
00:09:39.840 : en:Chapter 2
00:18:22.440 : en:Chapter 3
00:27:48.240 : en:Chapter 4
00:37:25.200 : en:Chapter 5
00:46:58.680 : en:Chapter 6
00:54:40.440 : en:Chapter 7
01:03:55.560 : en:Chapter 8
01:10:58.320 : en:Chapter 9
Скриншоты

Релиз от: Cthulhu
 

Вложения

  • 17,1 KB Просмотры: 0
    Личеров 0
    Сидеров 0
    Файлов 1
    Объем 1,6 GB

Привет!

Мы группа людей которые решили помочь другим в решении их проблем, а так же пользователям с поиском самых свежих и качественных инфопродуктов. За 4 с небольшим месяца мы создали этот форум на который заходят ежедневно тысячи человек и посещаемость постоянно растёт. Мы создали панель лицензирования для защиты PHP скриптов от воровства и SEO панель для мониторинга наших сайтов и выбора верной стратегии их развития. Мы надеемся что то что мы создали пригодится Вам и возможно Вы поможете нам развиваться и совершенствоваться вместе с Вами.

Статистика форума

Темы
406.678
Сообщения
465.125
Пользователи
84.737
Новый пользователь
Mo0dak

Приложения форума для iOS и Android


У ркн там нет власти ;)
Приватные разговоры
Помощь Пользователи
    Вы не присоединились ни к одной комнате.