За последнюю неделю опубликовано 82 новых материалов.
Инструкция новичку Путеводитель по форуму Прокси для Telegram Показать подсказки , это бомба!

Скачать Правосудие Стила / Steele Justice (1987) BDRip 720p | P2, A бесплатно через торрент

  • Поучаствуй (в качестве покупателя) в любых пяти совместных покупках (кроме завершённых и "Моментальных") и получи группу "Новичок" навсегда -> ссылка на раздел
  • Получай до 480 рублей за каждого приглашенного пользователя!
    представляем Вам очередное расширение партнерской программы, подробности описаны тут -> ссылка
  • 90% материалов доступно к скачиванию после простой регистрации!
    Если же ты хочешь скачивать материалы без требования оставлять отзывы то получи группу "Новичок", 10 способов повышения описаны тут -> ссылка
  • К сожалению количество битых ссылок растет и мы уже не можем их оперативно восстанавливать поэтому просим помощи у каждого нашего пользователя.
    С сегодняшнего дня, за каждую восстановленную ссылку мы заплатим Вам.
    Подробнее тут -> ссылка
  • Перенесем твои заслуги с другого ресурса!
    Мы понимаем как сложно прокачивать аккаунты на форумах, вроде раскачал аккаунт, а тут появляется ресурс в 100 раз круче но тоже с системой прокачки и снова качать аккаунт...
    Предлагаем вам перенести Ваши заслуги на другом подобном ресурсе к нам.
    Подробности описаны тут -> ссылка
  • Вы можете получать по 2.5% с каждой покупки и продажи на маркете! Подробности в теме Партнёрская программа
Если Вы не хотите скачивать, Вы всегда можетепосмотретьонлайн, просто нажмите кнопку ниже :

Открыть плеер

Torrent_Bot

Торрент-Бот
Бот форума
4 Окт 2016
104
152
20


Страна:США
Жанр:Боевик, триллер, драма, криминал
Год выпуска:1987
Продолжительность:01:36:44


Перевод 1:Профессиональный (двухголосый закадровый)НТВ+
Перевод 2:Профессиональный (двухголосый закадровый)ТВ6 / СВ-Дубль
Перевод 3:Авторский (одноголосый закадровый)Сергей Визгунов
Перевод 4:Авторский (одноголосый закадровый)Василий Горчаков
Субтитры:нет
Оригинальная аудиодорожка:английский


Режиссер:Роберт Борис / Robert Boris


В ролях:Мартин Коув, Села Уорд, Ронни Кокс, Берни Кейси, Джозеф Кампанелла, Сун-Тек Он, Жан Ган Бойд, Дэвид Фроман, Сара Дуглас


Описание:Добро пожаловать в мир боевика, мир мужской дружбы и мужской мести. Мир войны и мира. Любви и ненависти, потрясающих приключений и головоломных трюков! Мир безжалостных мафиози и бесстрашных полицейских, мстителей-одиночек и их верных друзей! Мир боевика - жестокий и добрый одновременно…. Много лет назад, во Вьетнаме, генерал Квон украл золото ЦРУ и попытался убить свидетелей - американских солдат Джона Стила и Ли. Джон спас жизнь Ли. Ли гибнет через много лет, в мирное время. Наркобанда «Черные тигры» расстреляла Ли и всю его семью, потому что Ли был полицейским, а «Тигры» устанавливают свои порядки. Конечно, Джон Стил будет мстить за друга. Он не знает, что бандой «Черных тигров» руководит его старый знакомый - бывший генерал, а ныне богатый бизнесмен Квон.






Релиз от:byАтлас31

Тип релиза:BDRip 720p
Контейнер:MKV

Видео:1280x694 at 23.976 fps, MPEG-4 AVC, ~14.5 Мbps avg
Аудио#1:Russian:48 kHz, AC3, 2/0 (L,R) ch, ~192 kbps avg|Двухголосый закадровый,НТВ+|
Аудио#2:Russian:48 kHz, AC3, 2/0 (L,R) ch, ~192 kbps avg|Двухголосый закадровый,ТВ6 / СВ-Дубль|
Аудио#3:Russian:48 kHz, AC3, 2/0 (L,R) ch, ~192 kbps avg|Одноголосый закадровый,Сергей Визгунов|
Аудио#4:Russian:48 kHz, AC3, 2/0 (L,R) ch, ~192 kbps avg|Одноголосый закадровый,Василий Горчаков|
Аудио#5:Ukrainian:48 kHz, AC3, 2/0 (L,R) ch, ~192 kbps avg|Многоголосый закадровый,АМС|
Аудио#6:English:48 kHz/16-bit, DTS, 2/0 (L,R) ch, ~1509 kbps avg
log x264
x264 info: frame I:954 Avg QP:14.76 size:173117
x264 info: frame P:26080 Avg QP:17.14 size:101165
x264 info: frame B:112133 Avg QP:18.89 size: 68778
x264 info: consecutive B-frames: 1.3% 1.6% 4.6% 12.3% 12.5% 44.9% 8.1% 2.3% 6.6% 2.0% 3.7%
MediaInfo
General
Unique ID : 177118776787864102393243048024389415877 (0x853FD5E96A8C685E9A7B2D81395B73C5)
Complete name : F:ФильмыSteele.Justice.1987.BluRay.720р.4хRus.Ukr.Eng.TeamHD-Атлас31.mkv
Format : Matroska
Format version : Version 4 / Version 2
File size : 11.5 GiB
Duration : 1h 36mn
Overall bit rate : 17.0 Mbps
Movie name : Steele.Justice.1987
Encoded date : UTC 2019-05-27 14:51:26
Writing application : mkvmerge v6.1.0 ('Old Devil') built on Mar 4 2013 09:10:42
Writing library : libebml v1.3.0 + libmatroska v1.4.0

Video
ID : 1
Format : AVC
Format/Info : Advanced Video Codec
Format profile : High@L4.1
Format settings, CABAC : Yes
Format settings, ReFrames : 9 frames
Codec ID : V_MPEG4/ISO/AVC
Duration : 1h 36mn
Bit rate : 14.5 Mbps
Width : 1 280 pixels
Height : 694 pixels
Display aspect ratio : 1.85:1
Frame rate mode : Constant
Frame rate : 23.976 fps
Color space : YUV
Chroma subsampling : 4:2:0
Bit depth : 8 bits
Scan type : Progressive
Bits/(Pixel*Frame) : 0.681
Stream size : 9.57 GiB (83%)
Title : Release for TeamHD by Атлас31
Writing library : x264 core 157 r2935 545de2f
Encoding settings : cabac=1 / ref=9 / deblock=1:-3:-3 / analyse=0x3:0x133 / me=umh / subme=11 / psy=1 / psy_rd=1.00:0.15 / mixed_ref=1 / me_range=32 / chroma_me=1 / trellis=2 / 8x8dct=1 / cqm=0 / deadzone=21,11 / fast_pskip=1 / chroma_qp_offset=-3 / threads=3 / lookahead_threads=1 / sliced_threads=0 / nr=0 / decimate=1 / interlaced=0 / bluray_compat=0 / constrained_intra=0 / bframes=10 / b_pyramid=2 / b_adapt=2 / b_bias=0 / direct=3 / weightb=1 / open_gop=0 / weightp=2 / keyint=240 / keyint_min=24 / scenecut=40 / intra_refresh=0 / rc_lookahead=60 / rc=2pass / mbtree=1 / bitrate=14500 / ratetol=1.0 / qcomp=0.60 / qpmin=0 / qpmax=69 / qpstep=4 / cplxblur=20.0 / qblur=0.5 / ip_ratio=1.40 / aq=1:1.00
Language : English
Default : Yes
Forced : No
Color primaries : BT.709
Transfer characteristics : BT.709
Matrix coefficients : BT.709
Color range : Limited

Audio #1
ID : 2
Format : AC-3
Format/Info : Audio Coding 3
Mode extension : CM (complete main)
Format settings, Endianness : Big
Codec ID : A_AC3
Duration : 1h 36mn
Bit rate mode : Constant
Bit rate : 192 Kbps
Channel(s) : 2 channels
Channel positions : Front: L R
Sampling rate : 48.0 KHz
Bit depth : 16 bits
Compression mode : Lossy
Stream size : 133 MiB (1%)
Title : DVO (НТВ+)
Language : Russian
Default : Yes
Forced : No

Audio #2
ID : 3
Format : AC-3
Format/Info : Audio Coding 3
Mode extension : CM (complete main)
Format settings, Endianness : Big
Codec ID : A_AC3
Duration : 1h 36mn
Bit rate mode : Constant
Bit rate : 192 Kbps
Channel(s) : 2 channels
Channel positions : Front: L R
Sampling rate : 48.0 KHz
Bit depth : 16 bits
Compression mode : Lossy
Stream size : 133 MiB (1%)
Title : DVO (ТВ6 / СВ-Дубль)
Language : Russian
Default : No
Forced : No

Audio #3
ID : 4
Format : AC-3
Format/Info : Audio Coding 3
Mode extension : CM (complete main)
Format settings, Endianness : Big
Codec ID : A_AC3
Duration : 1h 36mn
Bit rate mode : Constant
Bit rate : 192 Kbps
Channel(s) : 2 channels
Channel positions : Front: L R
Sampling rate : 48.0 KHz
Bit depth : 16 bits
Compression mode : Lossy
Stream size : 133 MiB (1%)
Title : AVO (Сергей Визгунов)
Language : Russian
Default : No
Forced : No

Audio #4
ID : 5
Format : AC-3
Format/Info : Audio Coding 3
Mode extension : CM (complete main)
Format settings, Endianness : Big
Codec ID : A_AC3
Duration : 1h 36mn
Bit rate mode : Constant
Bit rate : 192 Kbps
Channel(s) : 2 channels
Channel positions : Front: L R
Sampling rate : 48.0 KHz
Bit depth : 16 bits
Compression mode : Lossy
Stream size : 133 MiB (1%)
Title : AVO (Василий Горчаков)
Language : Russian
Default : No
Forced : No

Audio #5
ID : 6
Format : AC-3
Format/Info : Audio Coding 3
Mode extension : CM (complete main)
Format settings, Endianness : Big
Codec ID : A_AC3
Duration : 1h 36mn
Bit rate mode : Constant
Bit rate : 192 Kbps
Channel(s) : 2 channels
Channel positions : Front: L R
Sampling rate : 48.0 KHz
Bit depth : 16 bits
Compression mode : Lossy
Stream size : 133 MiB (1%)
Title : MVO (АМС)
Language : Ukrainian
Default : No
Forced : No

Audio #6
ID : 7
Format : DTS
Format/Info : Digital Theater Systems
Mode : 16
Format settings, Endianness : Big
Codec ID : A_DTS
Duration : 1h 36mn
Bit rate mode : Constant
Bit rate : 1 509 Kbps
Channel(s) : 2 channels
Channel positions : Front: L R
Sampling rate : 48.0 KHz
Bit depth : 16 bits
Compression mode : Lossy
Stream size : 1.02 GiB (9%)
Title : Original
Language : English
Default : No
Forced : No

Menu
00:00:00.000 : :Chapter 01
00:08:29.383 : :Chapter 02
00:19:14.189 : :Chapter 03
00:28:51.354 : :Chapter 04
00:37:31.801 : :Chapter 05
00:45:49.913 : :Chapter 06
00:56:01.399 : :Chapter 07
01:03:22.089 : :Chapter 08
01:10:32.978 : :Chapter 09
01:18:05.597 : :Chapter 10
01:25:25.960 : :Chapter 11
01:31:28.441 : :Chapter 12
Скриншоты
 

Вложения

  • 29,7 KB Просмотры: 1
    Личеров 0
    Сидеров 0
    Файлов 1
    Объем 11,5 GB

Привет!

Мы группа людей которые решили помочь другим в решении их проблем, а так же пользователям с поиском самых свежих и качественных инфопродуктов. За 4 с небольшим месяца мы создали этот форум на который заходят ежедневно тысячи человек и посещаемость постоянно растёт. Мы создали панель лицензирования для защиты PHP скриптов от воровства и SEO панель для мониторинга наших сайтов и выбора верной стратегии их развития. Мы надеемся что то что мы создали пригодится Вам и возможно Вы поможете нам развиваться и совершенствоваться вместе с Вами.

Статистика форума

Темы
404.526
Сообщения
461.395
Пользователи
80.025
Новый пользователь
Гена777

Приложения форума для iOS и Android


У ркн там нет власти ;)
Приватные разговоры
Помощь Пользователи
    Вы не присоединились ни к одной комнате.