За последнюю неделю опубликовано 57 новых материалов.
Инструкция новичку Путеводитель по форуму Прокси для Telegram Показать подсказки , это бомба!

Скачать Правосудие для всех / ...And Justice for All (1979) DVDRip-AVC | D, P | Fullscreen бесплатно через торрент

  • Поучаствуй (в качестве покупателя) в любых пяти совместных покупках (кроме завершённых и "Моментальных") и получи группу "Новичок" навсегда -> ссылка на раздел
  • Получай до 480 рублей за каждого приглашенного пользователя!
    представляем Вам очередное расширение партнерской программы, подробности описаны тут -> ссылка
  • 90% материалов доступно к скачиванию после простой регистрации!
    Если же ты хочешь скачивать материалы без требования оставлять отзывы то получи группу "Новичок", 10 способов повышения описаны тут -> ссылка
  • К сожалению количество битых ссылок растет и мы уже не можем их оперативно восстанавливать поэтому просим помощи у каждого нашего пользователя.
    С сегодняшнего дня, за каждую восстановленную ссылку мы заплатим Вам.
    Подробнее тут -> ссылка
  • Перенесем твои заслуги с другого ресурса!
    Мы понимаем как сложно прокачивать аккаунты на форумах, вроде раскачал аккаунт, а тут появляется ресурс в 100 раз круче но тоже с системой прокачки и снова качать аккаунт...
    Предлагаем вам перенести Ваши заслуги на другом подобном ресурсе к нам.
    Подробности описаны тут -> ссылка
  • Вы можете получать по 2.5% с каждой покупки и продажи на маркете! Подробности в теме Партнёрская программа
Если Вы не хотите скачивать, Вы всегда можетепосмотретьонлайн, просто нажмите кнопку ниже :

Открыть плеер

Torrent_Bot

Торрент-Бот
Бот форума
4 Окт 2016
92
163
20



Название: Правосудие для всех
Оригинальное название: ...And Justice for All
Год выхода: 1979
Жанр: драма, криминал
Режиссер: Норман Джуисон
В ролях: Аль Пачино, Джек Уорден, Джон Форсайт, Ли Страсберг, Джефри Тэмбор, Кристин Лати, Сэм Ливин, Роберт Кристиан, Томас Дж. Уэйтс, Ларри Бриггман

О фильме:
Адвокат-идеалист Артур Кёркланд настойчиво борется за справедливость и «правосудие для всех», но его усилия оказываются напрасными. Из-за юридической формальности садится в тюрьму невиновный человек, другой клиент героя по уши вязнет в сфабрикованном против него деле. В довершение ко всему, именно Артуру выпадает долг защищать в суде продажного судью Флеминга от обвинений в изнасиловании.



Страна: США
Продолжительность: 01:59:05
Перевод: Профессиональный (полное дублирование), профессиональный (многоголосый закадровый)

Формат: MKV
Качество: DVDRip-AVC
Видео: AVC/H.264, 714x480(4:3)@714x540, 23.976 fps, ~2039 Kbps
Аудио 1: AC3, 2 ch, 192 kbps - Русский (MVO Первый канал)
Аудио 2: AC3, 2 ch, 192 kbps - Русский (DUB)
Аудио 3: AC3, 2 ch, 192 kbps - Английский
Субтитры: русские, английские

MediaInfo
General
Unique ID : 141759106228163103928445342919121296157 (0x6AA5CF8DCCADAD46359E1DE28155DB1D)
Complete name : D:Правосудие для всех (1979) Full Screen.mkv
Format : Matroska
Format version : Version 4
File size : 2.18 GiB
Duration : 1 h 59 min
Overall bit rate : 2 617 kb/s
Encoded date : UTC 2020-02-17 10:23:14
Writing application : mkvmerge v42.0.0 ('Overtime') 64-bit
Writing library : libebml v1.3.10 + libmatroska v1.5.2

Video
ID : 1
Format : AVC
Format/Info : Advanced Video Codec
Format profile : [email protected]
Format settings : CABAC / 16 Ref Frames
Format settings, CABAC : Yes
Format settings, Reference : 16 frames
Codec ID : V_MPEG4/ISO/AVC
Duration : 1 h 59 min
Bit rate : 2 039 kb/s
Width : 714 pixels
Height : 480 pixels
Display aspect ratio : 4:3
Frame rate mode : Constant
Frame rate : 23.976 (24000/1001) FPS
Color space : YUV
Chroma subsampling : 4:2:0
Bit depth : 8 bits
Scan type : Progressive
Bits/(Pixel*Frame) : 0.248
Stream size : 1.70 GiB (78%)
Writing library : x264 core 159 r2991 1771b55
Encoding settings : cabac=1 / ref=16 / deblock=1:-3:-2 / analyse=0x3:0x113 / me=umh / subme=10 / psy=1 / psy_rd=1.00:0.00 / mixed_ref=1 / me_range=32 / chroma_me=1 / trellis=2 / 8x8dct=1 / cqm=0 / deadzone=21,11 / fast_pskip=0 / chroma_qp_offset=-2 / threads=3 / lookahead_threads=1 / sliced_threads=0 / nr=0 / decimate=0 / interlaced=0 / bluray_compat=0 / constrained_intra=0 / bframes=10 / b_pyramid=2 / b_adapt=2 / b_bias=0 / direct=3 / weightb=1 / open_gop=0 / weightp=2 / keyint=240 / keyint_min=23 / scenecut=40 / intra_refresh=0 / rc_lookahead=60 / rc=2pass / mbtree=0 / bitrate=2039 / ratetol=1.0 / qcomp=0.62 / qpmin=0 / qpmax=69 / qpstep=4 / cplxblur=20.0 / qblur=0.5 / vbv_maxrate=50000 / vbv_bufsize=62500 / nal_hrd=none / filler=0 / ip_ratio=1.40 / pb_ratio=1.30 / aq=2:0.85
Default : Yes
Forced : No

Audio #1
ID : 2
Format : AC-3
Format/Info : Audio Coding 3
Commercial name : Dolby Digital
Codec ID : A_AC3
Duration : 1 h 59 min
Bit rate mode : Constant
Bit rate : 192 kb/s
Channel(s) : 2 channels
Channel layout : L R
Sampling rate : 48.0 kHz
Frame rate : 31.250 FPS (1536 SPF)
Bit depth : 16 bits
Compression mode : Lossy
Stream size : 164 MiB (7%)
Title : MVO (Первый канал)
Language : Russian
Service kind : Complete Main
Default : Yes
Forced : No

Audio #2
ID : 3
Format : AC-3
Format/Info : Audio Coding 3
Commercial name : Dolby Digital
Codec ID : A_AC3
Duration : 1 h 59 min
Bit rate mode : Constant
Bit rate : 192 kb/s
Channel(s) : 2 channels
Channel layout : L R
Sampling rate : 48.0 kHz
Frame rate : 31.250 FPS (1536 SPF)
Bit depth : 16 bits
Compression mode : Lossy
Stream size : 164 MiB (7%)
Title : DUB (со вставками DVO)
Language : Russian
Service kind : Complete Main
Default : No
Forced : No

Audio #3
ID : 4
Format : AC-3
Format/Info : Audio Coding 3
Commercial name : Dolby Digital
Codec ID : A_AC3
Duration : 1 h 59 min
Bit rate mode : Constant
Bit rate : 192 kb/s
Channel(s) : 2 channels
Channel layout : L R
Sampling rate : 48.0 kHz
Frame rate : 31.250 FPS (1536 SPF)
Bit depth : 16 bits
Compression mode : Lossy
Stream size : 164 MiB (7%)
Title : Original
Language : English
Service kind : Complete Main
Default : No
Forced : No

Text #1
ID : 5
Format : UTF-8
Codec ID : S_TEXT/UTF8
Codec ID/Info : UTF-8 Plain Text
Duration : 1 h 56 min
Bit rate : 126 b/s
Count of elements : 1807
Stream size : 108 KiB (0%)
Language : Russian
Default : No
Forced : No

Text #2
ID : 6
Format : UTF-8
Codec ID : S_TEXT/UTF8
Codec ID/Info : UTF-8 Plain Text
Duration : 1 h 56 min
Bit rate : 76 b/s
Count of elements : 1912
Stream size : 64.8 KiB (0%)
Language : English
Default : No
Forced : No

Menu
00:00:00.000 : en:Chapter 01
00:03:44.991 : en:Chapter 02
00:07:25.812 : en:Chapter 03
00:09:34.440 : en:Chapter 04
00:11:33.659 : en:Chapter 05
00:13:25.271 : en:Chapter 06
00:20:16.515 : en:Chapter 07
00:23:53.064 : en:Chapter 08
00:27:50.835 : en:Chapter 09
00:31:53.878 : en:Chapter 10
00:38:38.949 : en:Chapter 11
00:41:31.689 : en:Chapter 12
00:45:49.179 : en:Chapter 13
00:47:52.903 : en:Chapter 14
00:54:29.099 : en:Chapter 15
00:57:26.309 : en:Chapter 16
01:04:15.351 : en:Chapter 17
01:08:35.277 : en:Chapter 18
01:12:37.519 : en:Chapter 19
01:16:39.027 : en:Chapter 20
01:18:50.525 : en:Chapter 21
01:22:32.981 : en:Chapter 22
01:24:15.417 : en:Chapter 23
01:27:09.157 : en:Chapter 24
01:29:51.219 : en:Chapter 25
01:38:03.077 : en:Chapter 26
01:42:29.977 : en:Chapter 27
01:47:52.265 : en:Chapter 28
Сравнения:


Скриншоты

 

Вложения

  • 11,8 KB Просмотры: 0
    Личеров 0
    Сидеров 0
    Файлов 1
    Объем 2,2 GB

Привет!

Мы группа людей которые решили помочь другим в решении их проблем, а так же пользователям с поиском самых свежих и качественных инфопродуктов. За 4 с небольшим месяца мы создали этот форум на который заходят ежедневно тысячи человек и посещаемость постоянно растёт. Мы создали панель лицензирования для защиты PHP скриптов от воровства и SEO панель для мониторинга наших сайтов и выбора верной стратегии их развития. Мы надеемся что то что мы создали пригодится Вам и возможно Вы поможете нам развиваться и совершенствоваться вместе с Вами.

Статистика форума

Темы
406.698
Сообщения
465.162
Пользователи
84.787
Новый пользователь
Freckle

Приложения форума для iOS и Android


У ркн там нет власти ;)
Приватные разговоры
Помощь Пользователи
    Вы не присоединились ни к одной комнате.