За последнюю неделю опубликовано 63 новых материалов.
Инструкция новичку Путеводитель по форуму Прокси для Telegram Показать подсказки , это бомба!

Скачать Повреждение мозга / Brain Damage (1988) BDRip 1080p | A бесплатно через торрент

  • Поучаствуй (в качестве покупателя) в любых пяти совместных покупках (кроме завершённых и "Моментальных") и получи группу "Новичок" навсегда -> ссылка на раздел
  • Получай до 480 рублей за каждого приглашенного пользователя!
    представляем Вам очередное расширение партнерской программы, подробности описаны тут -> ссылка
  • 90% материалов доступно к скачиванию после простой регистрации!
    Если же ты хочешь скачивать материалы без требования оставлять отзывы то получи группу "Новичок", 10 способов повышения описаны тут -> ссылка
  • К сожалению количество битых ссылок растет и мы уже не можем их оперативно восстанавливать поэтому просим помощи у каждого нашего пользователя.
    С сегодняшнего дня, за каждую восстановленную ссылку мы заплатим Вам.
    Подробнее тут -> ссылка
  • Перенесем твои заслуги с другого ресурса!
    Мы понимаем как сложно прокачивать аккаунты на форумах, вроде раскачал аккаунт, а тут появляется ресурс в 100 раз круче но тоже с системой прокачки и снова качать аккаунт...
    Предлагаем вам перенести Ваши заслуги на другом подобном ресурсе к нам.
    Подробности описаны тут -> ссылка
  • Вы можете получать по 2.5% с каждой покупки и продажи на маркете! Подробности в теме Партнёрская программа
Если Вы не хотите скачивать, Вы всегда можетепосмотретьонлайн, просто нажмите кнопку ниже :

Открыть плеер

Torrent_Bot

Торрент-Бот
Бот форума
4 Окт 2016
92
160
20



Название: Повреждение мозга
Оригинальное название: Brain Damage
Год выхода: 1988
Страна: США
Жанр: ужасы, комедия
Продолжительность: 01:25:44
Перевод: авторский (одноголосый, закадровый) Cергей Визгунов

Режиссер: Фрэнк Хененлоттер
В ролях: Рик Хёрст, Гордон МакДональд, Дженнифер Лоури, Тео Барнс, Люсиль Сен-Петер, Вики Дарнелл, Джозеф Гонзалез, Брэдли Родс, Майкл Бишоп, Беверли Боннер

О фильме:
Молодой парень Брайан просыпается однажды утром, ему явно нездоровится — очень хочется спать, кружится голова, а вскоре и вообще начались откровенные глюки. Немножечко придя в себя, Брайан решил выяснить причину своего состояния и… познакомился с маленьким паразитом, который тут же пообещал ему неземные наслаждения, если парень «положит его себе на шею».
«Почему бы и нет?» — подумалось Брайану, и вскоре он испытал такой кайф, о котором не мог даже и мечтать. Но за все надо платить, не так ли? Хочешь новой порции живительного сока — корми Элмера (так звали забавного паразита), а кушает он только мозги… Так и началось недолгое совместное сожительство охочего до наркотического дурмана Брайана и хитрого паразита Элмера, во время которого город стал наводняться трупами….



Формат: MKV
Качество: BDRip 1080p
Видео: AVC 10.8 Mb/s, 1920x1032(1.85:1), 23.976 fps, 0.226 bit/pixel
Аудио 1: Русский, AC3 2 ch, 192 kb/s, 48.0 kHz | AVO (Cергей Визгунов)
Аудио 2: English, AC3 6 ch, 640 kb/s, 48.0 kHz | Оригинал
Субтитры: English (SRT)
Главы: 12 шт.

Скриншоты
MediaInfo
General
Unique ID : 230786244117540574064451703573685788148 (0xAD9FD0572767CABE4A3626037510DDF4)
Complete name : E:CollectionVideoSHAREDBrain.Damage.1988.BDRip.1080p.Rus.Eng.erOole.mkv
Format : Matroska
Format version : Version 4
File size : 6.88 GiB
Duration : 1 h 25 min
Overall bit rate : 11.5 Mb/s
Movie name : Brain Damage (1988) Frank Henenlotter
Encoded date : UTC 2020-06-16 14:15:23
Writing application : mkvmerge v36.0.0 ('Is That Jazz?') 64-bit
Writing library : libebml v1.3.9 + libmatroska v1.5.2
Cover : Yes
Attachments : cover.jpg

Video
ID : 1
Format : AVC
Format/Info : Advanced Video Codec
Format profile : [email protected]
Format settings : CABAC / 1 Ref Frames
Format settings, CABAC : Yes
Format settings, Reference : 1 frame
Format settings, GOP : M=1, N=25
Codec ID : V_MPEG4/ISO/AVC
Duration : 1 h 25 min
Bit rate mode : Constant
Bit rate : 10.8 Mb/s
Width : 1 920 pixels
Height : 1 032 pixels
Display aspect ratio : 1.85:1
Frame rate mode : Constant
Frame rate : 23.976 (24000/1001) FPS
Color space : YUV
Chroma subsampling : 4:2:0
Bit depth : 8 bits
Scan type : Progressive
Bits/(Pixel*Frame) : 0.226
Stream size : 6.38 GiB (93%)
Default : Yes
Forced : No

Audio #1
ID : 2
Format : AC-3
Format/Info : Audio Coding 3
Commercial name : Dolby Digital
Codec ID : A_AC3
Duration : 1 h 25 min
Bit rate mode : Constant
Bit rate : 192 kb/s
Channel(s) : 2 channels
Channel layout : L R
Sampling rate : 48.0 kHz
Frame rate : 31.250 FPS (1536 SPF)
Compression mode : Lossy
Stream size : 118 MiB (2%)
Title : Cергей Визгунов AC3 2.0 192 kbps
Language : Russian
Service kind : Complete Main
Default : Yes
Forced : No

Audio #2
ID : 3
Format : AC-3
Format/Info : Audio Coding 3
Commercial name : Dolby Digital
Codec ID : A_AC3
Duration : 1 h 25 min
Bit rate mode : Constant
Bit rate : 640 kb/s
Channel(s) : 6 channels
Channel layout : L R C LFE Ls Rs
Sampling rate : 48.0 kHz
Frame rate : 31.250 FPS (1536 SPF)
Compression mode : Lossy
Stream size : 392 MiB (6%)
Title : Original AC3 5.1 640 kpps
Language : English
Service kind : Complete Main
Default : No
Forced : No

Text
ID : 4
Format : UTF-8
Codec ID : S_TEXT/UTF8
Codec ID/Info : UTF-8 Plain Text
Duration : 1 h 24 min
Bit rate : 36 b/s
Count of elements : 738
Stream size : 22.2 KiB (0%)
Language : English
Default : No
Forced : No

Menu
00:00:00.000 : en:00:00:00.000
00:07:31.534 : en:00:07:31.534
00:13:23.302 : en:00:13:23.302
00:24:58.580 : en:00:24:58.580
00:32:10.637 : en:00:32:10.637
00:38:18.421 : en:00:38:18.421
00:43:56.425 : en:00:43:56.425
00:51:15.030 : en:00:51:15.030
00:59:32.027 : en:00:59:32.027
01:05:49.612 : en:01:05:49.612
01:13:23.065 : en:01:13:23.065
01:20:15.644 : en:01:20:15.644
 

Вложения

  • 18,1 KB Просмотры: 0
    Личеров 0
    Сидеров 0
    Файлов 1
    Объем 6,9 GB

Привет!

Мы группа людей которые решили помочь другим в решении их проблем, а так же пользователям с поиском самых свежих и качественных инфопродуктов. За 4 с небольшим месяца мы создали этот форум на который заходят ежедневно тысячи человек и посещаемость постоянно растёт. Мы создали панель лицензирования для защиты PHP скриптов от воровства и SEO панель для мониторинга наших сайтов и выбора верной стратегии их развития. Мы надеемся что то что мы создали пригодится Вам и возможно Вы поможете нам развиваться и совершенствоваться вместе с Вами.

Статистика форума

Темы
406.656
Сообщения
465.106
Пользователи
84.673
Новый пользователь
cltdyj

Приложения форума для iOS и Android


У ркн там нет власти ;)
Приватные разговоры
Помощь Пользователи
    Вы не присоединились ни к одной комнате.