За последнюю неделю опубликовано 47 новых материалов.
Инструкция новичку Путеводитель по форуму Прокси для Telegram Показать подсказки , это бомба!

Скачать Повелитель приливов / Принц приливов / The Prince Of Tides (1991) WEB-DLRip-AVC | D, P2 бесплатно через торрент

  • Поучаствуй (в качестве покупателя) в любых пяти совместных покупках (кроме завершённых и "Моментальных") и получи группу "Новичок" навсегда -> ссылка на раздел
  • Получай до 480 рублей за каждого приглашенного пользователя!
    представляем Вам очередное расширение партнерской программы, подробности описаны тут -> ссылка
  • 90% материалов доступно к скачиванию после простой регистрации!
    Если же ты хочешь скачивать материалы без требования оставлять отзывы то получи группу "Новичок", 10 способов повышения описаны тут -> ссылка
  • К сожалению количество битых ссылок растет и мы уже не можем их оперативно восстанавливать поэтому просим помощи у каждого нашего пользователя.
    С сегодняшнего дня, за каждую восстановленную ссылку мы заплатим Вам.
    Подробнее тут -> ссылка
  • Перенесем твои заслуги с другого ресурса!
    Мы понимаем как сложно прокачивать аккаунты на форумах, вроде раскачал аккаунт, а тут появляется ресурс в 100 раз круче но тоже с системой прокачки и снова качать аккаунт...
    Предлагаем вам перенести Ваши заслуги на другом подобном ресурсе к нам.
    Подробности описаны тут -> ссылка
  • Вы можете получать по 2.5% с каждой покупки и продажи на маркете! Подробности в теме Партнёрская программа
Если Вы не хотите скачивать, Вы всегда можетепосмотретьонлайн, просто нажмите кнопку ниже :

Открыть плеер

Torrent_Bot

Торрент-Бот
Бот форума
4 Окт 2016
90
166
20



Информация о фильме
Название: Принц приливов / Повелитель приливов
Оригинальное название: The Prince of Tides
Год выхода: 1991
Жанр: драма, мелодрама
Режиссер: Барбра Стрейзанд / Barbra Streisand
В ролях: Ник Нолти, Барбра Стрейзанд, Блайт Даннер, Кейт Неллиган, Ерун Краббе, Мелинда Диллон, Джордж Карлин, Джейсон Гулд, Брэд Салливан, Мэгги Колье

О фильме:
Жизнь Тома Винго состоит из одних разочарований: он несчастлив в браке, лишен работы и надежды на будущее. К этому прибавились переживания за родную сестру, которая во второй раз пыталась покончить жизнь самоубийством.

Том обращается к ее психиатру Сьюзан, и неожиданно сам становится пациентом. Чтобы спасти сестру, он вынужден раскрыть самые мрачные страницы их детства. Но ни один врач не сможет избавить Тома от страшных воспоминаний и заглушить его боль. Это под силу только женщине и ее любви, которая побеждает страх и возвращает утраченные надежды.



Страна: США
Студия: Columbia Pictures Corporation, Barwood Films, Longfellow Pictures
Продолжительность: 02:11:48
Перевод: Профессиональный (дублированный) + профессиональный (двухголосый закадровый)
Субтитры: English

Файл
Формат: Matroska
Качество: WEB-DLRip-AVC
Видео: 1024x576 at 23.976 fps, x264, ~3105 kbps
Аудио #1: AC3, 2 ch, ~192 kbps - | Русский | - DUB - Варус Видео
Аудио #2: AC3, 2 ch, ~192 kbps - | Русский | - DVO - R5
Формат субтитров: softsub (SRT)

***Релиз от:-=DoMiNo=-

M/I
x264 info: frame I:1169 Avg QP:18.17 size: 88788
x264 info: frame P:44859 Avg QP:19.26 size: 35311
x264 info: frame B:143596 Avg QP:21.61 size: 10070
x264 info: consecutive B-frames: 1.1% 1.3% 4.0% 62.9% 14.4% 12.8% 1.6% 1.0% 0.3% 0.2% 0.1% 0.2% 0.2%

General
Unique ID : 197856273218207958356256711288921466484 (0x94D9BB6CB69076990EF6D16B82CF2674)
Complete name : Повелитель приливов.(1991).WEB-DLRip-AVC.F.S.[-=DoMiNo=-].mkv
Format : Matroska
Format version : Version 4
File size : 3.28 GiB
Duration : 2 h 11 min
Overall bit rate : 3 559 kb/s
Movie name : Повелитель приливов
Attachments : poster / poster
ACTORS : Nick Nolte, Barbra Streisand, Blythe Danner, Kate Nelligan, Jeroen Krabbé, Melinda Dillon, George Carlin, Jason Gould, Nancy Moore Atchison
COUNTRY : United States
DATE : 1991-12-25
DIRECTOR : Barbra Streisand
GENRE : Драма, Мелодрама
ITUNEXTC : mpaa|R|400|
ORIGINAL_TITLE : The Prince Of Tides
PRODUCER : Andrew S. Karsch, Barbra Streisand
RATING : 7,37

Video
ID : 1
Format : AVC
Format/Info : Advanced Video Codec
Format profile : [email protected]
Format settings : CABAC / 12 Ref Frames
Format settings, CABAC : Yes
Format settings, Reference : 12 frames
Codec ID : V_MPEG4/ISO/AVC
Duration : 2 h 11 min
Bit rate : 3 105 kb/s
Width : 1 024 pixels
Height : 576 pixels
Display aspect ratio : 16:9
Frame rate mode : Constant
Frame rate : 23.976 (24000/1001) FPS
Color space : YUV
Chroma subsampling : 4:2:0
Bit depth : 8 bits
Scan type : Progressive
Bits/(Pixel*Frame) : 0.220
Stream size : 2.86 GiB (87%)
Title : RIP_BY_-=DoMiNo=-
Writing library : x264 core 157 r2969 d4099dd
Encoding settings : cabac=1 / ref=12 / deblock=1:-2:-2 / analyse=0x3:0x133 / me=umh / subme=11 / psy=1 / psy_rd=1.00:0.00 / mixed_ref=1 / me_range=32 / chroma_me=1 / trellis=2 / 8x8dct=1 / cqm=0 / deadzone=21,11 / fast_pskip=1 / chroma_qp_offset=-2 / threads=6 / lookahead_threads=1 / sliced_threads=0 / nr=0 / decimate=1 / interlaced=0 / bluray_compat=0 / constrained_intra=0 / bframes=12 / b_pyramid=2 / b_adapt=2 / b_bias=0 / direct=1 / weightb=1 / open_gop=0 / weightp=2 / keyint=240 / keyint_min=23 / scenecut=40 / intra_refresh=0 / rc_lookahead=120 / rc=crf / mbtree=0 / crf=19.0 / qcomp=0.60 / qpmin=15 / qpmax=69 / qpstep=4 / vbv_maxrate=50000 / vbv_bufsize=62500 / crf_max=0.0 / nal_hrd=none / filler=0 / ip_ratio=1.40 / pb_ratio=1.30 / aq=3:1.00
Language : English
Default : Yes
Forced : No
Color range : Limited
Color primaries : BT.709
Transfer characteristics : BT.709
Matrix coefficients : BT.709

Audio #1
ID : 2
Format : AC-3
Format/Info : Audio Coding 3
Commercial name : Dolby Digital
Codec ID : A_AC3
Duration : 2 h 11 min
Bit rate mode : Constant
Bit rate : 192 kb/s
Channel(s) : 2 channels
Channel layout : L R
Sampling rate : 48.0 kHz
Frame rate : 31.250 FPS (1536 SPF)
Bit depth : 16 bits
Compression mode : Lossy
Stream size : 181 MiB (5%)
Title : DUB_[Варус Видео]
Language : Russian
Service kind : Complete Main
Default : Yes
Forced : No

Audio #2
ID : 3
Format : AC-3
Format/Info : Audio Coding 3
Commercial name : Dolby Digital
Codec ID : A_AC3
Duration : 2 h 11 min
Bit rate mode : Constant
Bit rate : 192 kb/s
Channel(s) : 2 channels
Channel layout : L R
Sampling rate : 48.0 kHz
Frame rate : 31.250 FPS (1536 SPF)
Bit depth : 16 bits
Compression mode : Lossy
Stream size : 181 MiB (5%)
Title : DVO_[R5]
Language : Russian
Service kind : Complete Main
Default : No
Forced : No

Text #1
ID : 4
Format : UTF-8
Codec ID : S_TEXT/UTF8
Codec ID/Info : UTF-8 Plain Text
Language : English
Default : Yes
Forced : No

Text #2
ID : 5
Format : UTF-8
Codec ID : S_TEXT/UTF8
Codec ID/Info : UTF-8 Plain Text
Title : SDH
Language : English
Default : No
Forced : No

Menu
00:00:00.000 : :1
00:07:09.976 : :2
00:11:27.976 : :3
00:23:52.976 : :4
00:30:33.976 : :5
00:40:13.976 : :6
00:46:16.976 : :7
00:56:15.976 : :8
01:04:26.976 : :9
01:13:08.976 : :10
01:22:31.976 : :11
01:38:40.976 : :12
01:47:59.976 : :13
01:54:44.976 : :14
02:01:49.976 : :15
02:04:28.976 : :16
Скриншоты
 

Вложения

  • 17,4 KB Просмотры: 1
    Личеров 0
    Сидеров 0
    Файлов 1
    Объем 3,3 GB

Привет!

Мы группа людей которые решили помочь другим в решении их проблем, а так же пользователям с поиском самых свежих и качественных инфопродуктов. За 4 с небольшим месяца мы создали этот форум на который заходят ежедневно тысячи человек и посещаемость постоянно растёт. Мы создали панель лицензирования для защиты PHP скриптов от воровства и SEO панель для мониторинга наших сайтов и выбора верной стратегии их развития. Мы надеемся что то что мы создали пригодится Вам и возможно Вы поможете нам развиваться и совершенствоваться вместе с Вами.

Статистика форума

Темы
410.885
Сообщения
469.441
Пользователи
87.878
Новый пользователь
tri2ger

Приложения форума для iOS и Android


У ркн там нет власти ;)
Приватные разговоры
Помощь Пользователи
    Вы не присоединились ни к одной комнате.