За последнюю неделю опубликовано 91 новых материалов.
Инструкция новичку Путеводитель по форуму Прокси для Telegram Показать подсказки , это бомба!

Скачать Повелитель / Overlord [S01 + Special] (2015) BDRip | SHIZA Project бесплатно через торрент

  • Поучаствуй (в качестве покупателя) в любых пяти совместных покупках (кроме завершённых и "Моментальных") и получи группу "Новичок" навсегда -> ссылка на раздел
  • Получай до 480 рублей за каждого приглашенного пользователя!
    представляем Вам очередное расширение партнерской программы, подробности описаны тут -> ссылка
  • 90% материалов доступно к скачиванию после простой регистрации!
    Если же ты хочешь скачивать материалы без требования оставлять отзывы то получи группу "Новичок", 10 способов повышения описаны тут -> ссылка
  • К сожалению количество битых ссылок растет и мы уже не можем их оперативно восстанавливать поэтому просим помощи у каждого нашего пользователя.
    С сегодняшнего дня, за каждую восстановленную ссылку мы заплатим Вам.
    Подробнее тут -> ссылка
  • Перенесем твои заслуги с другого ресурса!
    Мы понимаем как сложно прокачивать аккаунты на форумах, вроде раскачал аккаунт, а тут появляется ресурс в 100 раз круче но тоже с системой прокачки и снова качать аккаунт...
    Предлагаем вам перенести Ваши заслуги на другом подобном ресурсе к нам.
    Подробности описаны тут -> ссылка
  • Вы можете получать по 2.5% с каждой покупки и продажи на маркете! Подробности в теме Партнёрская программа

Torrent_Bot

Торрент-Бот
Бот форума
4 Окт 2016
102
152
20



Информация о фильме

Название : Повелитель
Оригинальное название : Overlord / オーバーロード
Год выхода : 2015
Тип: TV+Special
Жанр :Приключения, фэнтези
Режиссер : Ито Наоюки


Описание : Бежать из тягостной повседневности, покорить дивный новый мир, стать неуязвимым и бессмертным суперменом – такова мечта пресловутого «офисного планктона». Типичный его представитель, сражавшийся в недалеком будущем в виртуальную РПГ «Иггдрасиль» под ником Момонга, не захотел покидать закрывающуюся игру. Зачем же уходить из обжитой иллюзии, если можно даром получить целый мир для себя, любимого?!

И вот она у твоих ног – иная реальность, что рождается в мировом ничто, а неигровые персонажи, бездушные программы на глазах обретают сюжетную плоть и кровь. Кого волнует, что приходится странствовать в образе костлявого лича? Ведь ты всемогущ, прикажи – и красотка Альбедо воспылает страстью, а вампирша Шальтир будет ее отчаянно ревновать. Не стоит размышлять, Будда ты или бабочка на цветке лотоса: бей, руби, люби – в сказке можно все!
© Hollow, world-art


world-art | MyAnimeList | Офиц. Сайт | Повелитель Вики


Страна : Япония
Производство : Madhouse Studios
Продолжительность : 13 Эп. по ~00:24:00 минуты + Special, 8 эп ~00:03:00 мин.
Перевод: Любительский (двухголосый, закадровый), Субтитры [Special]

Перевод:

Русские субтитры:nnm-club^anime
Переводчик, оформление: Black_Overlord
Редактор: Tark

Озвучка:SHIZA Project
- Двухголосая (муж/жен): NIKITOS, NesTea
По переводу: Horosant
Работа со звуком и тайминг: Robb, Saya, Gigantic Guyver




Автор рипа: Странник 2.0


Файл
Качество: BDRip (исходник: BDRemux, спасибо antiBILLotic)
Тип релиза: Полухардсаб (Надписи)
Формат видео: AVI
Наличие линковки: Нет

Видео: XviD, 720x400 (16:9), 1650 Кбит/с, 23.976 fps, 8bit
Аудио 1: Русский, AC3, 192 Кбит/с, 48.0 Hz, 2 ch (в составе контейнера)
Аудио 2: Японский, AC3, 192 Кбит/с, 48.0 Hz, 2 ch (в составе контейнера)
Субтитры (srt): Русские [диалоги] (внешними файлами)

Список эпизодов
01. Конец и начало / End and Beginning
02. Стражи / Floor Guardians
03. Битва за деревню Карн / Battle at Carne Village
04. Владыка смерти / Ruler of Death
05. Два авантюриста / Two Venturers
06. Путешествие / Journey
07. Мудрый Король Леса / Wise King of Forest
08. Двойные мечи смерти / Twin Swords of Slashing Death
09. Тёмный воин / The Dark Warrior
10. Чистокровный вампир / True Vampire
11. Смятение и понимание / Confusion and Understanding
12. Кровавая валькирия / The Bloody Valkyrie
13. Игрок против неигрового персонажа / Player vs Non Player Character

Sp.01. Игра 1 - Владыка и начало / Pure Pure Pleiades: Play 1 - Overd and Beginning
Sp.02. Игра 2 - Боевые горничные / Pure Pure Pleiades: Play 2 - Battle Maids
Sp.03. Игра 3 - Кулаками продираясь сквозь ложь / Pure Pure Pleiades: Play 3 - Cutting Through the Lies with Fists
Sp.04. Игра 4 - Две жертвы / Pure Pure Pleiades: Play 4 - Two Victims
Sp.05. Игра 5 - Сердце хищника / Pure Pure Pleiades: Play 5 - A Predator`s Heart
Sp.06. Игра 6 - Битва за пределами Карн / Pure Pure Pleiades: Play 6 - Battle Outside of Carne Village
Sp.07. Игра 7 - Перед пушкой / Pure Pure Pleiades: Play 7 - Before the Cannon
Sp.08. Игра 8 - Понимание и смятение / Pure Pure Pleiades: Play 8 - Control and Chaos
Скриншоты






MediaInfo
General
Complete name : E:/Torrent_2/Overlord (2015, XviD BDRip, RUS JAP+SUB)/[Strannik 2.0] Overlord - 01 (BDRip) [SHIZA Project].avi
Format : AVI
Format/Info : Audio Video Interleave
File size : 355 MiB
Duration : 24mn 14s
Overall bit rate : 2 048 Kbps
Writing application : VirtualDubMod 1.5.10.3 (build 2550/release)
Writing library : VirtualDubMod build 2550/release

Video #0
ID : 0
Format : MPEG-4 Visual
Format profile : Advanced Simple@L5
Format settings, BVOP : 2
Format settings, QPel : No
Format settings, GMC : No warppoints
Format settings, Matrix : Custom
Codec ID : XVID
Codec ID/Hint : XviD
Duration : 24mn 14s
Bit rate : 1 650 Kbps
Width : 720 pixels
Height : 400 pixels
Display aspect ratio : 16:9
Frame rate : 23.976 fps
Color space : YUV
Chroma subsampling : 4:2:0
Bit depth : 8 bits
Scan type : Progressive
Compression mode : Lossy
Bits/(Pixel*Frame) : 0.239
Stream size : 286 MiB (81%)
Writing library : XviD 67

Audio #1
ID : 1
Format : AC-3
Format/Info : Audio Coding 3
Mode extension : CM (complete main)
Format settings, Endianness : Big
Codec ID : 2000
Duration : 24mn 14s
Bit rate mode : Constant
Bit rate : 192 Kbps
Channel(s) : 2 channels
Channel positions : Front: L R
Sampling rate : 48.0 KHz
Bit depth : 16 bits
Compression mode : Lossy
Stream size : 33.3 MiB (9%)
Alignment : Split accross interleaves
Interleave, duration : 42 ms (1.00 video frame)
Interleave, preload duration : 500 ms

Audio #2
ID : 2
Format : AC-3
Format/Info : Audio Coding 3
Mode extension : CM (complete main)
Format settings, Endianness : Big
Codec ID : 2000
Duration : 24mn 14s
Bit rate mode : Constant
Bit rate : 192 Kbps
Channel(s) : 2 channels
Channel positions : Front: L R
Sampling rate : 48.0 KHz
Bit depth : 16 bits
Compression mode : Lossy
Stream size : 33.3 MiB (9%)
Alignment : Split accross interleaves
Interleave, duration : 42 ms (1.00 video frame)
Interleave, preload duration : 500 ms




 

Вложения

  • 17,3 KB Просмотры: 0
    Личеров 0
    Сидеров 0
    Файлов 42
    Объем 4,8 GB

Привет!

Мы группа людей которые решили помочь другим в решении их проблем, а так же пользователям с поиском самых свежих и качественных инфопродуктов. За 4 с небольшим месяца мы создали этот форум на который заходят ежедневно тысячи человек и посещаемость постоянно растёт. Мы создали панель лицензирования для защиты PHP скриптов от воровства и SEO панель для мониторинга наших сайтов и выбора верной стратегии их развития. Мы надеемся что то что мы создали пригодится Вам и возможно Вы поможете нам развиваться и совершенствоваться вместе с Вами.

Статистика форума

Темы
404.589
Сообщения
461.467
Пользователи
80.284
Новый пользователь
Zuhra

Приложения форума для iOS и Android


У ркн там нет власти ;)
Приватные разговоры
Помощь Пользователи
    Вы не присоединились ни к одной комнате.