За последнюю неделю опубликовано 44 новых материалов.
Инструкция новичку Путеводитель по форуму Прокси для Telegram Показать подсказки , это бомба!

Скачать Повелитель / Overlord II [S02 + Special] (2018) BDRip | D бесплатно через торрент

  • Поучаствуй (в качестве покупателя) в любых пяти совместных покупках (кроме завершённых и "Моментальных") и получи группу "Новичок" навсегда -> ссылка на раздел
  • Получай до 480 рублей за каждого приглашенного пользователя!
    представляем Вам очередное расширение партнерской программы, подробности описаны тут -> ссылка
  • 90% материалов доступно к скачиванию после простой регистрации!
    Если же ты хочешь скачивать материалы без требования оставлять отзывы то получи группу "Новичок", 10 способов повышения описаны тут -> ссылка
  • К сожалению количество битых ссылок растет и мы уже не можем их оперативно восстанавливать поэтому просим помощи у каждого нашего пользователя.
    С сегодняшнего дня, за каждую восстановленную ссылку мы заплатим Вам.
    Подробнее тут -> ссылка
  • Перенесем твои заслуги с другого ресурса!
    Мы понимаем как сложно прокачивать аккаунты на форумах, вроде раскачал аккаунт, а тут появляется ресурс в 100 раз круче но тоже с системой прокачки и снова качать аккаунт...
    Предлагаем вам перенести Ваши заслуги на другом подобном ресурсе к нам.
    Подробности описаны тут -> ссылка
  • Вы можете получать по 2.5% с каждой покупки и продажи на маркете! Подробности в теме Партнёрская программа

Torrent_Bot

Торрент-Бот
Бот форума
4 Окт 2016
90
168
20



Информация о фильме

Название : Повелитель (ТВ-2)
Оригинальное название : Overlord II / オーバーロード II
Год выхода : 2018
Тип: TV+Special
Жанр :Приключения, Фэнтези
Режиссер : Ито Наоюки


Описание : Редко удаётся найти отличную онлайн-игру, в которой тебя устраивало бы абсолютно всё. Но пользователям "Иггдрасиль” несказанно повезло. Правда счастье их длилось недолго, ведь разработчики надумали закрыть эту игру. Лидер одной из самых могущественных гильдий по имени Момонга не хотел, чтобы игру закрывали и решил сидеть там до самого конца. Его желание отчасти сбылось, в час прощания с онлайн-миром Момонгу перенесло в реальный мир "Иггдрасиль”. Играй, сколько влезет. И Момонга бросился изучать, чем же этот мир отличается от онлайн-игры.
Однажды, во время очередной миссии, одной из верных NPC Момонги по имени Шалтия промыли мозги, и она решила убить своего бывшего хозяина. Битва с ней далась ему крайне нелегко, но в итоге он сумел перехитрить Шалтию и уничтожить её. В своём замке он возрождает девушку обратно в NPC, и она вновь обретает ясность ума. Теперь нужно выяснить, что за злой умысел стоял за её действиями, и кто дёргал за ниточки марионетки, пытаясь устранить могущественного соперника?


world-art | MyAnimeList | Офиц. Сайт | Повелитель Вики


Страна : Япония
Производство : Madhouse Studios
Продолжительность : 13 эпизодов по ~00:24:00, 13 спешлы по ~00:01:30
Перевод: Профессиональный (полное дублирование) Wakanim, субтитры (спешлы)

Перевод:

Русские субтитры:
Переводчик: Night (TV 01-13)

Русские субтитры:AniLibria (Sp. 01-13)
Переводчик: RInRin
Редактор: Feslav
Оформление: ElViS

Озвучка:Back Board Cinema[Студийная Банда] - Wakanim
- многоголосая полное дублирование: Давид Петросян, Татьяна Борзова, Полина Ртищева, Влад Дуров, Анна Мосолова, Сергей Кубясян, Александр Русаков, Ирина Зиновкина
По переводу: Алексей Соловьев[Истари Комикс]
Звукорежиссер: Александр Русаков

За озвучку спасибо moscowgolem




Автор рипа: Странник 2.0


Файл
Качество: BDRip (исходник: BDRemux, спасибо antiBILLotic)
Тип релиза: Полухардсаб (Надписи)
Формат видео: AVI
Наличие линковки: Нет

Видео: XviD, 720x400 (16:9), 1650 Кбит/с, 23.976 fps, 8bit
Аудио 1: Русский, AC3, 192 Кбит/с, 48.0 Hz, 2 ch (в составе контейнера)
Аудио 2: Японский, AC3, 192 Кбит/с, 48.0 Hz, 2 ch (в составе контейнера)
Субтитры (srt): Русские [диалоги] (внешними файлами)


Список эпизодов
01. Зарождение отчаяния / The Dawn of Despair
02. Отбытие / Departure
03. Сбор людоящеров / Lizard Men, Gathering
04. Армия смерти / Army of Death
05. Бог мороза / The Freezing God
06. Подобравший и подобранная / Those Who Pick Up, Those Who Are Picked Up
07. Синяя роза / Blue Roses
08. Чувства юноши / A Boy`s Feeling
09. Взвивающиеся искры / Soaring Sparks of Fire
10. Начало беспорядков в столице / Disturbance Begins in the Royal Capital
11. Ялдаваоф / Jaldabaoth
12. Финальное сражение в столице / The Final Battle of the Disturbance
13. Последний козырь / The Ultimate Trump Card

Sp.01. Апогей Замешательства / The dawn of Confusion
Sp.02. Работники из Другого Мира / The Staff in Another World
Sp.03. Менеджеры, на совещание / Executives, gathering
Sp.04. Невероятная преданность / Great Loyalty
Sp.05. Наказание для менеджера / The manager of verdict
Sp.06. Те, кто принимают / Those who pick up
Sp.07. Все по Все по плану (нет)плану (нет) / Out of order
Sp.08. Мнения Клиентов / Customers' feeling
Sp.09. Души? Витающие в Облаках / Soaring spirits of people
Sp.10. Даже не знаю... / Oh dear, I wonder
Sp.11. Простофиля / Jackass
Sp.12. Начало Волнений в Компаниях / Introduction of Industry disturbance
Sp.13. Начало Отчаяния / To the dawn of Despair
Скриншоты






MediaInfo
General
Complete name : E:/Torrent_2/Overlord II (2018, XviD BDRip, RUS JAP+SUB)/[Strannik 2.0] Overlord II - 01 (BDRip) [WAKANIM].avi
Format : AVI
Format/Info : Audio Video Interleave
File size : 354 MiB
Duration : 24mn 10s
Overall bit rate : 2 048 Kbps
Writing application : VirtualDubMod 1.5.10.3 (build 2550/release)
Writing library : VirtualDubMod build 2550/release

Video #0
ID : 0
Format : MPEG-4 Visual
Format profile : Advanced [email protected]
Format settings, BVOP : 2
Format settings, QPel : No
Format settings, GMC : No warppoints
Format settings, Matrix : Custom
Codec ID : XVID
Codec ID/Hint : XviD
Duration : 24mn 10s
Bit rate : 1 650 Kbps
Width : 720 pixels
Height : 400 pixels
Display aspect ratio : 16:9
Frame rate : 23.976 fps
Color space : YUV
Chroma subsampling : 4:2:0
Bit depth : 8 bits
Scan type : Progressive
Compression mode : Lossy
Bits/(Pixel*Frame) : 0.239
Stream size : 285 MiB (81%)
Writing library : XviD 67

Audio #1
ID : 1
Format : AC-3
Format/Info : Audio Coding 3
Mode extension : CM (complete main)
Format settings, Endianness : Big
Codec ID : 2000
Duration : 24mn 10s
Bit rate mode : Constant
Bit rate : 192 Kbps
Channel(s) : 2 channels
Channel positions : Front: L R
Sampling rate : 48.0 KHz
Bit depth : 16 bits
Compression mode : Lossy
Stream size : 33.2 MiB (9%)
Alignment : Split accross interleaves
Interleave, duration : 42 ms (1.00 video frame)
Interleave, preload duration : 500 ms

Audio #2
ID : 2
Format : AC-3
Format/Info : Audio Coding 3
Mode extension : CM (complete main)
Format settings, Endianness : Big
Codec ID : 2000
Duration : 24mn 10s
Bit rate mode : Constant
Bit rate : 192 Kbps
Channel(s) : 2 channels
Channel positions : Front: L R
Sampling rate : 48.0 KHz
Bit depth : 16 bits
Compression mode : Lossy
Stream size : 33.2 MiB (9%)
Alignment : Split accross interleaves
Interleave, duration : 42 ms (1.00 video frame)
Interleave, preload duration : 500 ms




 

Вложения

  • 18,1 KB Просмотры: 1
    Личеров 0
    Сидеров 0
    Файлов 52
    Объем 4,7 GB

Привет!

Мы группа людей которые решили помочь другим в решении их проблем, а так же пользователям с поиском самых свежих и качественных инфопродуктов. За 4 с небольшим месяца мы создали этот форум на который заходят ежедневно тысячи человек и посещаемость постоянно растёт. Мы создали панель лицензирования для защиты PHP скриптов от воровства и SEO панель для мониторинга наших сайтов и выбора верной стратегии их развития. Мы надеемся что то что мы создали пригодится Вам и возможно Вы поможете нам развиваться и совершенствоваться вместе с Вами.

Статистика форума

Темы
410.952
Сообщения
469.378
Пользователи
88.408
Новый пользователь
dsstarina_77

Приложения форума для iOS и Android


У ркн там нет власти ;)
Приватные разговоры
Помощь Пользователи
    Вы не присоединились ни к одной комнате.