За последнюю неделю опубликовано 35 новых материалов.
Инструкция новичку Путеводитель по форуму Прокси для Telegram Показать подсказки , это бомба!

Скачать Последствия / The Aftermath (2019) BDRemux 1080p от селезень | iTunes бесплатно через торрент

  • Поучаствуй (в качестве покупателя) в любых пяти совместных покупках (кроме завершённых и "Моментальных") и получи группу "Новичок" навсегда -> ссылка на раздел
  • Получай до 480 рублей за каждого приглашенного пользователя!
    представляем Вам очередное расширение партнерской программы, подробности описаны тут -> ссылка
  • 90% материалов доступно к скачиванию после простой регистрации!
    Если же ты хочешь скачивать материалы без требования оставлять отзывы то получи группу "Новичок", 10 способов повышения описаны тут -> ссылка
  • К сожалению количество битых ссылок растет и мы уже не можем их оперативно восстанавливать поэтому просим помощи у каждого нашего пользователя.
    С сегодняшнего дня, за каждую восстановленную ссылку мы заплатим Вам.
    Подробнее тут -> ссылка
  • Перенесем твои заслуги с другого ресурса!
    Мы понимаем как сложно прокачивать аккаунты на форумах, вроде раскачал аккаунт, а тут появляется ресурс в 100 раз круче но тоже с системой прокачки и снова качать аккаунт...
    Предлагаем вам перенести Ваши заслуги на другом подобном ресурсе к нам.
    Подробности описаны тут -> ссылка
  • Вы можете получать по 2.5% с каждой покупки и продажи на маркете! Подробности в теме Партнёрская программа
Если Вы не хотите скачивать, Вы всегда можетепосмотретьонлайн, просто нажмите кнопку ниже :

Открыть плеер

Torrent_Bot

Торрент-Бот
Бот форума
4 Окт 2016
93
160
20


Информация о фильме
Название: Последствия
Оригинальное название: The Aftermath
Год выхода: 2019
Жанр: Драма, мелодрама, военный
Режиссер: Джеймс Кент
В ролях: Кира Найтли, Александр Скарсгард, Джейсон Кларк, Фионн О’Ши, Кейт Филлипс, Мартин Компстон, Александр Шеер, Анна Катарина Шримригк, Нед Виллс, Пандора Колин



О фильме: Германия после Второй мировой войны. В стране беспорядок, разруха, голод. Главный герой — британский военный Льюис Морган, который назначен временным мэром Гамбурга. Ему предстоит восстанавливать город почти с нуля. Вместе с женой Льюис селится в роскошный особняк, где живет немецкий архитектор с эмоционально нестабильной дочерью. Смогут ли бывшие враги ужиться под одной крышей или желание отомстить будет сильнее?

Страна: Великобритания, Германия, США
Студия: Amusement Park Films, Fox Searchlight Pictures, Scott Free Productions
Продолжительность: 01:48:38
Перевод: Дублированный | iTunes

Качество: BDRemux 1080p
Видео: MPEG-4 AVC, 1920x1080, 30.0 Mbit/s, 23.976 fps
Звук:
Аудио #01: 48 kHz, AC3, 5.1, 384 Kbps | iTunes | RUS |
Аудио #02: 48 kHz, AC3, 2.0, 160 Kbps | iTunes | UKR |
Аудио #03: 48 kHz, DTS-HD MA, 5.1, 3313 Kbps | Оригинал | ENG |
Субтитры: Русские (forced, full), украинские (forced), английские



MI
General
Unique ID : 35856350925636329835510548420698710835 (0x1AF9AE972F982E20931AFDAD432E2333)
Complete name : D:Video111The.Aftermath.2019.BDREMUX.1080p.seleZen.mkv
Format : Matroska
Format version : Version 4
File size : 25.7 GiB
Duration : 1 h 48 min
Overall bit rate mode : Variable
Overall bit rate : 33.9 Mb/s
Movie name : The Aftermath 2019 from селезень
Encoded date : UTC 2019-06-22 21:31:30
Writing application : mkvmerge v33.1.0 ('Primrose') 64-bit
Writing library : libebml v1.3.7 + libmatroska v1.5.0

Video
ID : 1
Format : AVC
Format/Info : Advanced Video Codec
Format profile : [email protected]
Format settings : CABAC / 4 Ref Frames
Format settings, CABAC : Yes
Format settings, Reference : 4 frames
Codec ID : V_MPEG4/ISO/AVC
Duration : 1 h 48 min
Bit rate mode : Variable
Bit rate : 30.0 Mb/s
Maximum bit rate : 32.5 Mb/s
Width : 1 920 pixels
Height : 1 080 pixels
Display aspect ratio : 16:9
Frame rate mode : Constant
Frame rate : 23.976 (24000/1001) FPS
Color space : YUV
Chroma subsampling : 4:2:0
Bit depth : 8 bits
Scan type : Progressive
Bits/(Pixel*Frame) : 0.604
Stream size : 22.8 GiB (89%)
Language : English
Default : Yes
Forced : No

Audio #1
ID : 2
Format : AC-3
Format/Info : Audio Coding 3
Commercial name : Dolby Digital
Codec ID : A_AC3
Duration : 1 h 48 min
Bit rate mode : Constant
Bit rate : 384 kb/s
Channel(s) : 6 channels
Channel layout : L R C LFE Ls Rs
Sampling rate : 48.0 kHz
Frame rate : 31.250 FPS (1536 SPF)
Bit depth : 16 bits
Compression mode : Lossy
Stream size : 298 MiB (1%)
Title : iTunes
Language : Russian
Service kind : Complete Main
Default : Yes
Forced : Yes

Audio #2
ID : 3
Format : AC-3
Format/Info : Audio Coding 3
Commercial name : Dolby Digital
Codec ID : A_AC3
Duration : 1 h 48 min
Bit rate mode : Constant
Bit rate : 160 kb/s
Channel(s) : 2 channels
Channel layout : L R
Sampling rate : 48.0 kHz
Frame rate : 31.250 FPS (1536 SPF)
Bit depth : 16 bits
Compression mode : Lossy
Stream size : 124 MiB (0%)
Title : iTunes
Language : Ukrainian
Service kind : Complete Main
Default : No
Forced : No

Audio #3
ID : 4
Format : DTS XLL
Format/Info : Digital Theater Systems
Commercial name : DTS-HD Master Audio
Codec ID : A_DTS
Duration : 1 h 48 min
Bit rate mode : Variable
Bit rate : 3 313 kb/s
Channel(s) : 6 channels
Channel layout : C L R Ls Rs LFE
Sampling rate : 48.0 kHz
Frame rate : 93.750 FPS (512 SPF)
Bit depth : 24 bits
Compression mode : Lossless
Stream size : 2.51 GiB (10%)
Title : Original
Language : English
Default : No
Forced : No

Text #1
ID : 5
Format : UTF-8
Codec ID : S_TEXT/UTF8
Codec ID/Info : UTF-8 Plain Text
Duration : 1 h 42 min
Bit rate : 3 b/s
Count of elements : 79
Stream size : 2.72 KiB (0%)
Title : Forced
Language : Russian
Default : Yes
Forced : Yes

Text #2
ID : 6
Format : UTF-8
Codec ID : S_TEXT/UTF8
Codec ID/Info : UTF-8 Plain Text
Duration : 1 h 47 min
Bit rate : 44 b/s
Count of elements : 837
Stream size : 35.0 KiB (0%)
Title : Full
Language : Russian
Default : No
Forced : No

Text #3
ID : 7
Format : UTF-8
Codec ID : S_TEXT/UTF8
Codec ID/Info : UTF-8 Plain Text
Duration : 1 h 31 min
Bit rate : 3 b/s
Count of elements : 74
Stream size : 2.45 KiB (0%)
Title : Forced
Language : Ukrainian
Default : No
Forced : No

Text #4
ID : 8
Format : UTF-8
Codec ID : S_TEXT/UTF8
Codec ID/Info : UTF-8 Plain Text
Duration : 1 h 18 min
Bit rate : 2 b/s
Count of elements : 61
Stream size : 1.30 KiB (0%)
Title : Forced
Language : English
Default : No
Forced : No

Text #5
ID : 9
Format : UTF-8
Codec ID : S_TEXT/UTF8
Codec ID/Info : UTF-8 Plain Text
Duration : 1 h 39 min
Bit rate : 31 b/s
Count of elements : 949
Stream size : 22.8 KiB (0%)
Title : Full
Language : English
Default : No
Forced : No

Menu
00:00:00.000 : en:Chapter 01
00:04:00.198 : en:Chapter 02
00:10:37.387 : en:Chapter 03
00:14:21.152 : en:Chapter 04
00:17:51.779 : en:Chapter 05
00:22:40.526 : en:Chapter 06
00:27:50.878 : en:Chapter 07
00:35:09.524 : en:Chapter 08
00:37:11.020 : en:Chapter 09
00:41:33.074 : en:Chapter 10
00:46:29.078 : en:Chapter 11
00:49:59.872 : en:Chapter 12
00:56:03.694 : en:Chapter 13
01:02:05.680 : en:Chapter 14
01:04:49.636 : en:Chapter 15
01:09:01.262 : en:Chapter 16
01:15:59.305 : en:Chapter 17
01:19:48.033 : en:Chapter 18
01:22:09.049 : en:Chapter 19
01:27:01.508 : en:Chapter 20
01:29:36.788 : en:Chapter 21
01:33:39.614 : en:Chapter 22
01:39:16.033 : en:Chapter 23
01:42:47.870 : en:Chapter 24

Релиз:

 

Вложения

  • 33,1 KB Просмотры: 1
    Личеров 0
    Сидеров 0
    Файлов 1
    Объем 25,7 GB

Привет!

Мы группа людей которые решили помочь другим в решении их проблем, а так же пользователям с поиском самых свежих и качественных инфопродуктов. За 4 с небольшим месяца мы создали этот форум на который заходят ежедневно тысячи человек и посещаемость постоянно растёт. Мы создали панель лицензирования для защиты PHP скриптов от воровства и SEO панель для мониторинга наших сайтов и выбора верной стратегии их развития. Мы надеемся что то что мы создали пригодится Вам и возможно Вы поможете нам развиваться и совершенствоваться вместе с Вами.

Статистика форума

Темы
406.612
Сообщения
465.045
Пользователи
84.402
Новый пользователь
Маруся-Маруся

Приложения форума для iOS и Android


У ркн там нет власти ;)
Приватные разговоры
Помощь Пользователи
    Вы не присоединились ни к одной комнате.