За последнюю неделю опубликовано 15 новых материалов.
Инструкция новичку Путеводитель по форуму Прокси для Telegram Показать подсказки , это бомба!

Скачать Последняя пуля / Disturbing the Peace (2020) WEB-DLRip-AVC от OlLanDGroup | iTunes бесплатно через торрент

  • Поучаствуй (в качестве покупателя) в любых пяти совместных покупках (кроме завершённых и "Моментальных") и получи группу "Новичок" навсегда -> ссылка на раздел
  • Получай до 480 рублей за каждого приглашенного пользователя!
    представляем Вам очередное расширение партнерской программы, подробности описаны тут -> ссылка
  • 90% материалов доступно к скачиванию после простой регистрации!
    Если же ты хочешь скачивать материалы без требования оставлять отзывы то получи группу "Новичок", 10 способов повышения описаны тут -> ссылка
  • К сожалению количество битых ссылок растет и мы уже не можем их оперативно восстанавливать поэтому просим помощи у каждого нашего пользователя.
    С сегодняшнего дня, за каждую восстановленную ссылку мы заплатим Вам.
    Подробнее тут -> ссылка
  • Перенесем твои заслуги с другого ресурса!
    Мы понимаем как сложно прокачивать аккаунты на форумах, вроде раскачал аккаунт, а тут появляется ресурс в 100 раз круче но тоже с системой прокачки и снова качать аккаунт...
    Предлагаем вам перенести Ваши заслуги на другом подобном ресурсе к нам.
    Подробности описаны тут -> ссылка
  • Вы можете получать по 2.5% с каждой покупки и продажи на маркете! Подробности в теме Партнёрская программа
Если Вы не хотите скачивать, Вы всегда можетепосмотретьонлайн, просто нажмите кнопку ниже :

Открыть плеер

Torrent_Bot

Торрент-Бот
Бот форума
4 Окт 2016
122
116
20



Информация о фильме
Название: Последняя пуля
Оригинальное название: Disturbing the Peace
Год выхода: 2020
Жанр: Боевик
Режиссер: Йорк Шеклтон
В ролях: Гай Пирс, Девон Сава, Барби Бланк, Майкл Беллисарио, Дуэйн Камерон, Келли Грейсон, Джейк Гродник, Теренс Дж. Ротоло, Джон Льюис, Эль Е. Уоллес

О фильме:
Тихий городок оказывается захвачен бандой дерзких и жестоких преступников. Их план - обрубить все каналы связи и держать жителей в заложниках, чтобы ограбить проезжающий через город инкассаторский грузовик с крупным кушем. Им плевать сколько мирных людей погибнет ради их наживы, однако им не стоило недооценивать опытного местного шерифа, который даже в одиночку готов сражаться за свой город до последней капли крови и до последней пули.



Страна: США
Студия: Aloe Entertainment, Grodnik /Aloe Productions, Media Finance Capital, Wonderfilm Media
Продолжительность: 01:30:48
Перевод: Дублированный | iTunes

Файл
Формат: MKV
Качество: WEB-DLRip-AVC
Источник: |Disturbing.the.Peace.2020.720p.WEB-DL.Rus.Eng.TeamHD|
Видео: 720x360 (2.000), 24 fps, x264 ~1074 kbps avg, 0.173 bit/pixel
Звук: 48 kHz, HE-AAC, 2 ch, ~72 kbps avg | RUS
Субтитры: Нет MediaInfo:
General
Unique ID : 283326574364085576663353781090019858486 (0xD526B69ED0FB4138E8C9A4AA27DE5836)
Complete name : C:UsersSkandarVideosDisturbing.the.Peace.2020.WEB-DLRip(AVC).OlLanDGroup.mkv
Format : Matroska
Format version : Version 4
File size : 745 MiB
Duration : 1 h 30 min
Overall bit rate : 1 147 kb/s
Movie name : Disturbing.the.Peace.2020.WEB-DLRip(AVC).OlLanDGroup#Skandar#
Encoded date : UTC 2020-01-17 21:21:07
Writing application : mkvmerge v31.0.0 ('Dolores In A Shoestand') 64-bit
Writing library : libebml v1.3.6 + libmatroska v1.4.9
Cover : Yes
Attachments : cover.png

Video
ID : 1
Format : AVC
Format/Info : Advanced Video Codec
Format profile : [email protected]
Format settings : CABAC / 10 Ref Frames
Format settings, CABAC : Yes
Format settings, ReFrames : 10 frames
Codec ID : V_MPEG4/ISO/AVC
Duration : 1 h 30 min
Bit rate : 1 074 kb/s
Width : 720 pixels
Height : 360 pixels
Display aspect ratio : 2.000
Frame rate mode : Constant
Frame rate : 24.000 FPS
Color space : YUV
Chroma subsampling : 4:2:0
Bit depth : 8 bits
Scan type : Progressive
Bits/(Pixel*Frame) : 0.173
Stream size : 696 MiB (94%)
Title : Disturbing.the.Peace.2020.WEB-DLRip(AVC).OlLanDGroup#Skandar#
Writing library : x264 core 146 r2538 121396c
Encoding settings : cabac=1 / ref=10 / deblock=1:-3:-3 / analyse=0x3:0x133 / me=umh / subme=11 / psy=1 / psy_rd=0.97:0.05 / mixed_ref=1 / me_range=48 / chroma_me=1 / trellis=2 / 8x8dct=1 / cqm=0 / deadzone=21,11 / fast_pskip=0 / chroma_qp_offset=-3 / threads=6 / lookahead_threads=1 / sliced_threads=0 / nr=0 / decimate=0 / interlaced=0 / bluray_compat=0 / constrained_intra=0 / bframes=11 / b_pyramid=2 / b_adapt=2 / b_bias=0 / direct=3 / weightb=1 / open_gop=0 / weightp=2 / keyint=240 / keyint_min=23 / scenecut=40 / intra_refresh=0 / rc_lookahead=40 / rc=2pass / mbtree=0 / bitrate=1074 / ratetol=1.0 / qcomp=0.60 / qpmin=0 / qpmax=69 / qpstep=4 / cplxblur=20.0 / qblur=0.5 / vbv_maxrate=50000 / vbv_bufsize=62500 / nal_hrd=none / filler=0 / ip_ratio=1.40 / pb_ratio=1.30 / aq=1:1.00
Language : English
Default : Yes
Forced : No

Audio
ID : 2
Format : AAC LC SBR
Format/Info : Advanced Audio Codec Low Complexity with Spectral Band Replication
Commercial name : HE-AAC
Format settings : Explicit
Codec ID : A_AAC-2
Duration : 1 h 30 min
Bit rate : 72.0 kb/s
Channel(s) : 2 channels
Channel layout : L R
Sampling rate : 48.0 kHz
Frame rate : 23.438 FPS (2048 SPF)
Compression mode : Lossy
Delay relative to video : 31 ms
Stream size : 46.8 MiB (6%)
Title : DUB | iTunes Russia
Language : Russian
Default : Yes
Forced : No

Menu
00:00:00.000 : en:Глава 1
00:08:13.250 : en:Глава 2
00:16:38.000 : en:Глава 3
00:25:33.875 : en:Глава 4
00:33:59.250 : en:Глава 5
00:42:09.708 : en:Глава 6
00:50:36.541 : en:Глава 7
00:58:45.749 : en:Глава 8
01:06:59.624 : en:Глава 9
01:14:54.832 : en:Глава 10
Скриншоты



Релиз от:
 

Вложения

  • 16,4 KB Просмотры: 0
    Личеров 0
    Сидеров 0
    Файлов 1
    Объем 744,7 MB

Привет!

Мы группа людей которые решили помочь другим в решении их проблем, а так же пользователям с поиском самых свежих и качественных инфопродуктов. За 4 с небольшим месяца мы создали этот форум на который заходят ежедневно тысячи человек и посещаемость постоянно растёт. Мы создали панель лицензирования для защиты PHP скриптов от воровства и SEO панель для мониторинга наших сайтов и выбора верной стратегии их развития. Мы надеемся что то что мы создали пригодится Вам и возможно Вы поможете нам развиваться и совершенствоваться вместе с Вами.

Статистика форума

Темы
385.073
Сообщения
430.556
Пользователи
63.327
Новый пользователь
kiriris

Приложения форума для iOS и Android


У ркн там нет власти ;)
Приватные разговоры
Помощь Пользователи
    Вы не присоединились ни к одной комнате.