За последнюю неделю опубликовано 25 новых материалов.
Инструкция новичку Путеводитель по форуму Прокси для Telegram Показать подсказки , это бомба!

Скачать Последняя пуля / Disturbing the Peace (2020) WEB-DL 1080p | iTunes бесплатно через торрент

  • Поучаствуй (в качестве покупателя) в любых пяти совместных покупках (кроме завершённых и "Моментальных") и получи группу "Новичок" навсегда -> ссылка на раздел
  • Получай до 480 рублей за каждого приглашенного пользователя!
    представляем Вам очередное расширение партнерской программы, подробности описаны тут -> ссылка
  • 90% материалов доступно к скачиванию после простой регистрации!
    Если же ты хочешь скачивать материалы без требования оставлять отзывы то получи группу "Новичок", 10 способов повышения описаны тут -> ссылка
  • К сожалению количество битых ссылок растет и мы уже не можем их оперативно восстанавливать поэтому просим помощи у каждого нашего пользователя.
    С сегодняшнего дня, за каждую восстановленную ссылку мы заплатим Вам.
    Подробнее тут -> ссылка
  • Перенесем твои заслуги с другого ресурса!
    Мы понимаем как сложно прокачивать аккаунты на форумах, вроде раскачал аккаунт, а тут появляется ресурс в 100 раз круче но тоже с системой прокачки и снова качать аккаунт...
    Предлагаем вам перенести Ваши заслуги на другом подобном ресурсе к нам.
    Подробности описаны тут -> ссылка
  • Вы можете получать по 2.5% с каждой покупки и продажи на маркете! Подробности в теме Партнёрская программа
Если Вы не хотите скачивать, Вы всегда можетепосмотретьонлайн, просто нажмите кнопку ниже :

Открыть плеер

Torrent_Bot

Торрент-Бот
Бот форума
4 Окт 2016
122
115
20



Информация о фильме
Название: Последняя пуля
Оригинальное название: Disturbing the Peace
Год выхода: 2020
Жанр: Боевик
Режиссер: Йорк Шеклтон
В ролях: Гай Пирс, Девон Сава, Барби Бланк, Майкл Беллисарио, Дуэйн Камерон, Келли Грейсон, Джейк Гродник, Теренс Дж. Ротоло, Джон Льюис, Эль Е. Уоллес

О фильме: Тихий городок оказывается захвачен бандой дерзких и жестоких преступников. Их план - обрубить все каналы связи и держать жителей в заложниках, чтобы ограбить проезжающий через город инкассаторский грузовик с крупным кушем. Им плевать сколько мирных людей погибнет ради их наживы, однако им не стоило недооценивать опытного местного шерифа, который даже в одиночку готов сражаться за свой город до последней капли крови и до последней пули.



Страна: США
Студия: Aloe Entertainment, Grodnik /Aloe Productions, Media Finance Capital, Wonderfilm Media
Продолжительность: 01:30:49
Перевод: Дублированный | iTunes

Файл
Качество: WEB-DL 1080p
Контейнер: MKV
Видео: MPEG-4 AVC, 1920x960, 4978 Kbps, 24.000 fps
Аудио 1: Russian: AC3, 6 ch, 384 kbps, 48.0 KHz - DUB, iTunes
Аудио 2: English: AC3, 6 ch, 384 kbps, 48.0 KHz - Оригинал
Субтитры: Нет

Релиз от:

Скриншоты

MediaInfo
General
Unique ID : 181514906924791664134431106049168343351 (0x888E7FDC9AD2F9409FC2416A4D8B8137)
Complete name : DST_T_PEACE_WEB-DL_1080p-BLUEBIRD.mkv
Format : Matroska
Format version : Version 4 / Version 2
File size : 3.72 GiB
Duration : 1 h 30 min
Overall bit rate : 5 863 kb/s
Encoded date : UTC 2020-01-16 19:14:00
Writing application : mkvmerge v6.9.1 ('Blue Panther') 32bit built on Apr 18 2014 18:15:44
Writing library : libebml v1.3.0 + libmatroska v1.4.1
Cover : Yes
Attachments : cover.png

Video
ID : 1
Format : AVC
Format/Info : Advanced Video Codec
Format profile : High@L4
Format settings, CABAC : Yes
Format settings, RefFrames : 4 frames
Codec ID : V_MPEG4/ISO/AVC
Duration : 1 h 30 min
Bit rate : 4 978 kb/s
Width : 1 920 pixels
Height : 960 pixels
Display aspect ratio : 2.000
Frame rate mode : Constant
Frame rate : 24.000 FPS
Color space : YUV
Chroma subsampling : 4:2:0
Bit depth : 8 bits
Scan type : Progressive
Bits/(Pixel*Frame) : 0.113
Stream size : 3.16 GiB (85%)
Language : English
Default : Yes
Forced : No
Color range : Limited
Color primaries : BT.709
Transfer characteristics : BT.709
Matrix coefficients : BT.709

Audio #1
ID : 2
Format : AC-3
Format/Info : Audio Coding 3
Format settings, Endianness : Big
Codec ID : A_AC3
Duration : 1 h 30 min
Bit rate mode : Constant
Bit rate : 384 kb/s
Channel(s) : 6 channels
Channel positions : Front: L C R, Side: L R, LFE
Sampling rate : 48.0 kHz
Frame rate : 31.250 FPS (1536 SPF)
Bit depth : 16 bits
Compression mode : Lossy
Stream size : 249 MiB (7%)
Title : [DUB] DD 5.1 @ 384 kbps (iTunes)
Language : Russian
Service kind : Complete Main
Default : Yes
Forced : No

Audio #2
ID : 3
Format : AC-3
Format/Info : Audio Coding 3
Format settings, Endianness : Big
Codec ID : A_AC3
Duration : 1 h 30 min
Bit rate mode : Constant
Bit rate : 384 kb/s
Channel(s) : 6 channels
Channel positions : Front: L C R, Side: L R, LFE
Sampling rate : 48.0 kHz
Frame rate : 31.250 FPS (1536 SPF)
Bit depth : 16 bits
Compression mode : Lossy
Stream size : 249 MiB (7%)
Title : [ORIGINAL] DD 5.1 @ 384 kbps (iTunes)
Language : English
Service kind : Complete Main
Default : No
Forced : No

Menu
00:00:00.000 : en:Глава 1
00:08:13.250 : en:Глава 2
00:16:38.000 : en:Глава 3
00:25:33.875 : en:Глава 4
00:33:59.250 : en:Глава 5
00:42:09.708 : en:Глава 6
00:50:36.541 : en:Глава 7
00:58:45.749 : en:Глава 8
01:06:59.624 : en:Глава 9
01:14:54.832 : en:Глава 10
 

Вложения

  • 19,5 KB Просмотры: 0
    Личеров 0
    Сидеров 0
    Файлов 1
    Объем 3,7 GB

Привет!

Мы группа людей которые решили помочь другим в решении их проблем, а так же пользователям с поиском самых свежих и качественных инфопродуктов. За 4 с небольшим месяца мы создали этот форум на который заходят ежедневно тысячи человек и посещаемость постоянно растёт. Мы создали панель лицензирования для защиты PHP скриптов от воровства и SEO панель для мониторинга наших сайтов и выбора верной стратегии их развития. Мы надеемся что то что мы создали пригодится Вам и возможно Вы поможете нам развиваться и совершенствоваться вместе с Вами.

Статистика форума

Темы
385.029
Сообщения
430.043
Пользователи
62.493
Новый пользователь
Wendel

Приложения форума для iOS и Android


У ркн там нет власти ;)
Приватные разговоры
Помощь Пользователи
    Вы не присоединились ни к одной комнате.