За последнюю неделю опубликовано 88 новых материалов.
Инструкция новичку Путеводитель по форуму Прокси для Telegram Показать подсказки , это бомба!

Скачать Последняя любовь на Земле / Perfect Sense (2011) BDRip 720p | P бесплатно через торрент

  • Поучаствуй (в качестве покупателя) в любых пяти совместных покупках (кроме завершённых и "Моментальных") и получи группу "Новичок" навсегда -> ссылка на раздел
  • Получай до 480 рублей за каждого приглашенного пользователя!
    представляем Вам очередное расширение партнерской программы, подробности описаны тут -> ссылка
  • 90% материалов доступно к скачиванию после простой регистрации!
    Если же ты хочешь скачивать материалы без требования оставлять отзывы то получи группу "Новичок", 10 способов повышения описаны тут -> ссылка
  • К сожалению количество битых ссылок растет и мы уже не можем их оперативно восстанавливать поэтому просим помощи у каждого нашего пользователя.
    С сегодняшнего дня, за каждую восстановленную ссылку мы заплатим Вам.
    Подробнее тут -> ссылка
  • Перенесем твои заслуги с другого ресурса!
    Мы понимаем как сложно прокачивать аккаунты на форумах, вроде раскачал аккаунт, а тут появляется ресурс в 100 раз круче но тоже с системой прокачки и снова качать аккаунт...
    Предлагаем вам перенести Ваши заслуги на другом подобном ресурсе к нам.
    Подробности описаны тут -> ссылка
  • Вы можете получать по 2.5% с каждой покупки и продажи на маркете! Подробности в теме Партнёрская программа
Если Вы не хотите скачивать, Вы всегда можетепосмотретьонлайн, просто нажмите кнопку ниже :

Открыть плеер

Torrent_Bot

Торрент-Бот
Бот форума
4 Окт 2016
102
153
20



Страна: Германия, Дания, Швеция, Великобритания
Жанр: Драма, мелодрама
Год выпуска: 2011
Продолжительность: 01:32:10

Перевод: Профессиональный (многоголосый закадровый)
2: Украинский - Профессиональный (многоголосый, закадровый) - К1
3: Украинский - Любительский (многоголосый, закадровый) - bGwean & MaslinkaB
Субтитры: русские, украинские, английские
Оригинальная аудиодорожка: английский

Режиссер: Дэвид МакКензи

В ролях: Эван МакГрегор, Ева Грин, Конни Нильсен, Стивен Диллэйн, Юэн Бремнер, Дэнис Лоусон, Аластер Маккензи, Джеймс Уотсон, Лиз Стрэйндж, Ричард Макк, Кэролайн Патерсон, Адам Смит, Малкольм Шилдс, Дункан Эйрли, Анамария Маринка

Описание: Земля столкнулась с небывалым бедствием. В разных странах, на каждом континенте люди в самом буквальном смысле лишаются чувств — каждого из пяти, одного за другим… Майкл и Сьюзан считают свою связь мимолетной, но когда становится ясно, что мир неумолимо приближается к концу, герои понимают — им уже не прожить друг без друга. Но что останется, когда пропадут последние чувства?



Сэмпл: Multi-UP.COM залейте нам один раз - мы зальем вÑюду ::

Тип релиза: BDRip 720p
Контейнер: MKV

Видео: 1280x544 (2.35:1), 24.000 fps, AVC, ~4056 Kbps, 0.243 bits/pixel
Аудио: Russian, 48.0 KHz, DTS, 6 ch, 1510 Kbps - Профессиональный (многоголосый, закадровый) - 1536 kbps
Аудио 2: Ukrainian, 48.0 KHz, AC3, 2 ch, 192 Kbps - Профессиональный (многоголосый, закадровый) - К1
Аудио 3: Ukrainian, 48.0 KHz, AC3, 6 ch, 640 Kbps - Любительский (многоголосый, закадровый) - Gwean & Maslinka
Аудио 4: English, 48.0 KHz, DTS, 6 ch, 755 Kbps - 768 kbps
Формат субтитров: softsub (SRT)
MediaInfo
Общее
Уникальный идентификатор : 207022972800507148785089561482627339192 (0x9BBF2C9B99684A6084C242247EB353B8)
Полное имя : D:perfect.Sense.x264.2011.BDRip.720p.Rus.2xUkr.Eng.mkv
Формат : Matroska
Версия формата : Version 4 / Version 2
Размер файла : 4,61 Гбайт
Продолжительность : 1 ч. 32 м.
Общий поток : 7155 Кбит/сек
Дата кодирования : UTC 2019-06-05 11:18:00
Программа кодирования : mkvmerge v7.9.0 ('Birds') 64bit
Библиотека кодирования : libebml v1.3.1 + libmatroska v1.4.2

Видео
Идентификатор : 1
Формат : AVC
Формат/Информация : Advanced Video Codec
Профиль формата : High@L4.1
Параметр CABAC формата : Да
Параметр RefFrames формата : 5 кадров
Идентификатор кодека : V_MPEG4/ISO/AVC
Продолжительность : 1 ч. 32 м.
Битрейт : 4056 Кбит/сек
Ширина : 1280 пикселей
Высота : 544 пикселя
Соотношение сторон : 2,35:1
Режим частоты кадров : Постоянный
Частота кадров : 24,000 кадра/сек
Цветовое пространство : YUV
Субдискретизация насыщенности : 4:2:0
Битовая глубина : 8 бит
Тип развёртки : Прогрессивная
Бит/(Пиксели*Кадры) : 0.243
Размер потока : 2,61 Гбайт (57%)
Библиотека кодирования : x264 core 120 r2164 da19765
Настройки программы : cabac=1 / ref=5 / deblock=1:0:0 / analyse=0x3:0x113 / me=umh / subme=9 / psy=1 / psy_rd=1.00:0.00 / mixed_ref=1 / me_range=16 / chroma_me=1 / trellis=1 / 8x8dct=1 / cqm=0 / deadzone=21,11 / fast_pskip=1 / chroma_qp_offset=-2 / threads=12 / sliced_threads=0 / nr=0 / decimate=1 / interlaced=0 / bluray_compat=0 / constrained_intra=0 / bframes=3 / b_pyramid=2 / b_adapt=1 / b_bias=0 / direct=3 / weightb=1 / open_gop=0 / weightp=2 / keyint=250 / keyint_min=24 / scenecut=40 / intra_refresh=0 / rc_lookahead=40 / rc=2pass / mbtree=1 / bitrate=4056 / ratetol=1.0 / qcomp=0.60 / qpmin=0 / qpmax=69 / qpstep=4 / cplxblur=20.0 / qblur=0.5 / ip_ratio=1.40 / aq=1:1.00
Язык : English
Default : Да
Forced : Нет

Аудио #1
Идентификатор : 2
Формат : DTS
Формат/Информация : Digital Theater Systems
Режим : 16
Параметр Endianness формата : Big
Идентификатор кодека : A_DTS
Продолжительность : 1 ч. 32 м.
Вид битрейта : Постоянный
Битрейт : 1510 Кбит/сек
Каналы : 6 каналов
Расположение каналов : Front: L C R, Side: L R, LFE
Частота : 48,0 КГц
Частота кадров : 93,750 кадра/сек (512 SPF)
Битовая глубина : 24 бит
Метод сжатия : С потерями
Размер потока : 995 Мбайт (21%)
Заголовок : Профессиональный (многоголосый, закадровый) - 1536 kbps
Язык : Russian
Default : Да
Forced : Нет

Аудио #2
Идентификатор : 3
Формат : AC-3
Формат/Информация : Audio Coding 3
Параметр Endianness формата : Big
Идентификатор кодека : A_AC3
Продолжительность : 1 ч. 32 м.
Вид битрейта : Постоянный
Битрейт : 192 Кбит/сек
Каналы : 2 канала
Расположение каналов : Front: L R
Частота : 48,0 КГц
Частота кадров : 31,250 кадров/сек (1536 SPF)
Битовая глубина : 16 бит
Метод сжатия : С потерями
Размер потока : 127 Мбайт (3%)
Заголовок : Профессиональный (многоголосый, закадровый) - К1
Язык : Ukrainian
ServiceKind/String : Complete Main
Default : Нет
Forced : Нет

Аудио #3
Идентификатор : 4
Формат : AC-3
Формат/Информация : Audio Coding 3
Параметр Endianness формата : Big
Идентификатор кодека : A_AC3
Продолжительность : 1 ч. 32 м.
Вид битрейта : Постоянный
Битрейт : 640 Кбит/сек
Каналы : 6 каналов
Расположение каналов : Front: L C R, Side: L R, LFE
Частота : 48,0 КГц
Частота кадров : 31,250 кадров/сек (1536 SPF)
Битовая глубина : 16 бит
Метод сжатия : С потерями
Размер потока : 422 Мбайт (9%)
Заголовок : Любительский (многоголосый, закадровый) - bGwean & MaslinkaB
Язык : Ukrainian
ServiceKind/String : Complete Main
Default : Нет
Forced : Нет

Аудио #4
Идентификатор : 5
Формат : DTS
Формат/Информация : Digital Theater Systems
Режим : 16
Параметр Endianness формата : Big
Идентификатор кодека : A_DTS
Продолжительность : 1 ч. 32 м.
Вид битрейта : Постоянный
Битрейт : 755 Кбит/сек
Каналы : 6 каналов
Расположение каналов : Front: L C R, Side: L R, LFE
Частота : 48,0 КГц
Частота кадров : 93,750 кадра/сек (512 SPF)
Битовая глубина : 16 бит
Метод сжатия : С потерями
Размер потока : 497 Мбайт (11%)
Заголовок : 768 kbps
Язык : English
Default : Нет
Forced : Нет

Текст #1
Идентификатор : 6
Формат : UTF-8
Идентификатор кодека : S_TEXT/UTF8
Идентификатор кодека/Информация : UTF-8 Plain Text
Продолжительность : 1 ч. 27 м.
Битрейт : 66 бит/сек
ElementCount : 759
Размер потока : 42,5 Кбайт (0%)
Язык : Russian
Default : Нет
Forced : Нет

Текст #2
Идентификатор : 7
Формат : UTF-8
Идентификатор кодека : S_TEXT/UTF8
Идентификатор кодека/Информация : UTF-8 Plain Text
Продолжительность : 1 ч. 26 м.
Битрейт : 65 бит/сек
ElementCount : 823
Размер потока : 41,4 Кбайт (0%)
Заголовок : Full
Язык : Ukrainian
Default : Нет
Forced : Нет

Текст #3
Идентификатор : 8
Формат : UTF-8
Идентификатор кодека : S_TEXT/UTF8
Идентификатор кодека/Информация : UTF-8 Plain Text
Продолжительность : 1 ч. 16 м.
Битрейт : 1 бит/сек
ElementCount : 12
Размер потока : 708 байт (0%)
Заголовок : Forced
Язык : Ukrainian
Default : Да
Forced : Нет

Текст #4
Идентификатор : 9
Формат : UTF-8
Идентификатор кодека : S_TEXT/UTF8
Идентификатор кодека/Информация : UTF-8 Plain Text
Продолжительность : 1 ч. 26 м.
Битрейт : 41 бит/сек
ElementCount : 836
Размер потока : 26,2 Кбайт (0%)
Язык : English
Default : Нет
Forced : Нет

Меню
00:00:00.000 : en:00:00:00.000
00:07:20.042 : en:00:07:20.042
00:13:36.625 : en:00:13:36.625
00:22:45.000 : en:00:22:45.000
00:28:32.000 : en:00:28:32.000
00:37:29.417 : en:00:37:29.417
00:43:56.833 : en:00:43:56.833
00:51:35.208 : en:00:51:35.208
00:57:41.583 : en:00:57:41.583
01:07:11.583 : en:01:07:11.583
01:14:17.958 : en:01:14:17.958
01:20:18.125 : en:01:20:18.125
01:27:21.833 : en:01:27:21.833

Скриншоты
 

Вложения

  • 24 KB Просмотры: 1
    Личеров 0
    Сидеров 0
    Файлов 1
    Объем 4,6 GB

Привет!

Мы группа людей которые решили помочь другим в решении их проблем, а так же пользователям с поиском самых свежих и качественных инфопродуктов. За 4 с небольшим месяца мы создали этот форум на который заходят ежедневно тысячи человек и посещаемость постоянно растёт. Мы создали панель лицензирования для защиты PHP скриптов от воровства и SEO панель для мониторинга наших сайтов и выбора верной стратегии их развития. Мы надеемся что то что мы создали пригодится Вам и возможно Вы поможете нам развиваться и совершенствоваться вместе с Вами.

Статистика форума

Темы
404.617
Сообщения
461.558
Пользователи
80.412
Новый пользователь
polkasha

Приложения форума для iOS и Android


У ркн там нет власти ;)
Приватные разговоры
Помощь Пользователи
    Вы не присоединились ни к одной комнате.