За последнюю неделю опубликовано 90 новых материалов.
Инструкция новичку Путеводитель по форуму Прокси для Telegram Показать подсказки , это бомба!

Скачать Последний урок / La journée de la jupe (2008) BDRip-AVC | P бесплатно через торрент

  • Поучаствуй (в качестве покупателя) в любых пяти совместных покупках (кроме завершённых и "Моментальных") и получи группу "Новичок" навсегда -> ссылка на раздел
  • Получай до 480 рублей за каждого приглашенного пользователя!
    представляем Вам очередное расширение партнерской программы, подробности описаны тут -> ссылка
  • 90% материалов доступно к скачиванию после простой регистрации!
    Если же ты хочешь скачивать материалы без требования оставлять отзывы то получи группу "Новичок", 10 способов повышения описаны тут -> ссылка
  • К сожалению количество битых ссылок растет и мы уже не можем их оперативно восстанавливать поэтому просим помощи у каждого нашего пользователя.
    С сегодняшнего дня, за каждую восстановленную ссылку мы заплатим Вам.
    Подробнее тут -> ссылка
  • Перенесем твои заслуги с другого ресурса!
    Мы понимаем как сложно прокачивать аккаунты на форумах, вроде раскачал аккаунт, а тут появляется ресурс в 100 раз круче но тоже с системой прокачки и снова качать аккаунт...
    Предлагаем вам перенести Ваши заслуги на другом подобном ресурсе к нам.
    Подробности описаны тут -> ссылка
  • Вы можете получать по 2.5% с каждой покупки и продажи на маркете! Подробности в теме Партнёрская программа
Если Вы не хотите скачивать, Вы всегда можетепосмотретьонлайн, просто нажмите кнопку ниже :

Открыть плеер

Torrent_Bot

Торрент-Бот
Бот форума
4 Окт 2016
102
152
20



Информация о фильме
Название: Последний урок
Оригинальное название: La journée de la jupe
Год выхода: 2008
Жанр: Драма
Режиссер: Жан-Поль Лильенфельд
В ролях: Изабель Аджани, Дени Подалидес, Янн Коллетт, Натали Безансон, Марк Китти, Янн Эбонж, Кевин Азиз, Карим Закрауи, Халид Беркуз, Сара Дуали, Хассан Мезуд, Соня Амори, Мелезе Бузид, Салим Бухиден, Фили Думбия, Оливье Брошериу, Жакки Берруайе, Энн Жирар, Стефан Гуэрин-Тилли, Бенхаисса Ахуари, Косеила Аит-Гезали, Димоиник Каше, Сяосин Чэн, Сара-Лора Эстранья, Хаджра Фарес, Жиль Фламан, Лорен Эннекен, Мариам Каба, Малика Кадри, Сирилл Кервестан, Жан-Рауль Лакот, Фелисиано Лопез, Жан Чарльз Мануэль, Бендит Рат, Режис Ромель, Вероника Ружжиа, Эммануэль Виейи, Омар Ями, Ахмет Зирек

О фильме:
Обычная школьная учительница находится на грани нервного срыва из-за постоянных угроз и издевательств своих учеников — детей из неблагополучных семей. Руководство бездействует, предпочитая игнорировать тревожные признаки назревающей трагедии. Во время очередного урока, в ходе потасовки с главарём школьной банды, она завладевает настоящим пистолетом. Раздаются выстрелы. Испуганные подростки оказываются в заложниках у собственной учительницы.
Сложившуюся ситуацию уже никто не в состоянии контролировать. Снаружи — готовая к захвату опергруппа, внутри — притихшие, но озлобленные дети, вынужденные учить Мольера под дулом револьвера в руках одинокой и растерянной женщины. Трагическая развязка близка. Но пока ещё есть время, они вместе пробуют разобраться, откуда у этих ребят накопилось столько злобы и ненависти к окружающему миру.



Страна: Франция, Бельгия
Студия: Arte France
Продолжительность: 01:27:02
Перевод: Профессиональный (многоголосый закадровый) - Другое кино

Файл
Кодек: H.264
Качество: BDRip-AVC
Видео: 736x414, 25.000 fps, 1120 kb/s
Звук: AAC-HE, 2ch, 76kbps
Субтитры: Русские
Присутствуют главы
MI
General
Unique ID : 108899358919284006195351786506453173836 (0x51ED40EDAE4D5CB2E31D402966D6C64C)
Complete name : C:UsersПашаDownloadsПоследний урок.mkv
Format : Matroska
Format version : Version 4
File size : 746 MiB
Duration : 1 h 27 min
Overall bit rate : 1 198 kb/s
Encoded date : UTC 2019-06-29 17:35:20
Writing application : mkvmerge v33.1.0 ('Primrose') 64-bit
Writing library : libebml v1.3.7 + libmatroska v1.5.0
Cover : Yes
Attachments : cover.jpg

Video
ID : 1
Format : AVC
Format/Info : Advanced Video Codec
Format profile : High@L4.1
Format settings : CABAC / 12 Ref Frames
Format settings, CABAC : Yes
Format settings, Reference : 12 frames
Codec ID : V_MPEG4/ISO/AVC
Duration : 1 h 27 min
Bit rate : 1 120 kb/s
Width : 736 pixels
Height : 414 pixels
Display aspect ratio : 16:9
Frame rate mode : Constant
Frame rate : 25.000 FPS
Color space : YUV
Chroma subsampling : 4:2:0
Bit depth : 8 bits
Scan type : Progressive
Bits/(Pixel*Frame) : 0.147
Stream size : 697 MiB (93%)
Title : Rip by donadar
Writing library : x264 core 152 r2851 ba24899
Encoding settings : cabac=1 / ref=12 / deblock=1:-3:-3 / analyse=0x3:0x133 / me=umh / subme=10 / psy=1 / psy_rd=1.00:0.10 / mixed_ref=1 / me_range=32 / chroma_me=1 / trellis=2 / 8x8dct=1 / cqm=0 / deadzone=21,11 / fast_pskip=0 / chroma_qp_offset=-3 / threads=8 / lookahead_threads=2 / sliced_threads=0 / nr=0 / decimate=0 / interlaced=0 / bluray_compat=0 / constrained_intra=0 / bframes=12 / b_pyramid=2 / b_adapt=2 / b_bias=0 / direct=3 / weightb=1 / open_gop=0 / weightp=2 / keyint=250 / keyint_min=25 / scenecut=40 / intra_refresh=0 / rc_lookahead=40 / rc=2pass / mbtree=1 / bitrate=1120 / ratetol=1.0 / qcomp=0.60 / qpmin=0 / qpmax=69 / qpstep=4 / cplxblur=20.0 / qblur=0.5 / vbv_maxrate=50000 / vbv_bufsize=62500 / nal_hrd=none / filler=0 / ip_ratio=1.40 / aq=2:1.00
Language : French
Default : Yes
Forced : No

Audio
ID : 2
Format : AAC LC SBR
Format/Info : Advanced Audio Codec Low Complexity with Spectral Band Replication
Commercial name : HE-AAC
Format settings : Explicit
Codec ID : A_AAC-2
Duration : 1 h 27 min
Bit rate : 76.0 kb/s
Channel(s) : 2 channels
Channel layout : L R
Sampling rate : 48.0 kHz
Frame rate : 23.438 FPS (2048 SPF)
Compression mode : Lossy
Delay relative to video : 31 ms
Stream size : 47.3 MiB (6%)
Language : Russian
Default : Yes
Forced : No

Text
ID : 3
Format : UTF-8
Codec ID : S_TEXT/UTF8
Codec ID/Info : UTF-8 Plain Text
Duration : 1 h 23 min
Bit rate : 121 b/s
Count of elements : 1035
Stream size : 74.0 KiB (0%)
Language : Russian
Default : Yes
Forced : No

Menu
00:00:00.000 : en:Chapter 1
00:08:06.959 : en:Chapter 2
00:13:57.440 : en:Chapter 3
00:19:46.160 : en:Chapter 4
00:24:47.000 : en:Chapter 5
00:31:03.598 : en:Chapter 6
00:35:27.000 : en:Chapter 7
00:40:28.800 : en:Chapter 8
00:43:24.239 : en:Chapter 9
00:48:25.079 : en:Chapter 10
00:51:39.000 : en:Chapter 11
00:58:10.320 : en:Chapter 12
01:05:50.880 : en:Chapter 13
01:12:01.238 : en:Chapter 14
01:19:11.880 : en:Chapter 15
01:23:50.198 : en:Chapter 16
Скриншоты
16+
Релиз от: donadar
 

Вложения

  • 15,4 KB Просмотры: 1
    Личеров 0
    Сидеров 0
    Файлов 1
    Объем 745,5 MB

Привет!

Мы группа людей которые решили помочь другим в решении их проблем, а так же пользователям с поиском самых свежих и качественных инфопродуктов. За 4 с небольшим месяца мы создали этот форум на который заходят ежедневно тысячи человек и посещаемость постоянно растёт. Мы создали панель лицензирования для защиты PHP скриптов от воровства и SEO панель для мониторинга наших сайтов и выбора верной стратегии их развития. Мы надеемся что то что мы создали пригодится Вам и возможно Вы поможете нам развиваться и совершенствоваться вместе с Вами.

Статистика форума

Темы
404.560
Сообщения
461.359
Пользователи
80.159
Новый пользователь
оляляс

Приложения форума для iOS и Android


У ркн там нет власти ;)
Приватные разговоры
Помощь Пользователи
    Вы не присоединились ни к одной комнате.