За последнюю неделю опубликовано 62 новых материалов.
Инструкция новичку Путеводитель по форуму Прокси для Telegram Показать подсказки , это бомба!

Скачать Последние дни американской преступности / The Last Days of American Crime (2020) WEBRip 720p от ExKinoRay | HDRezka Studio бесплатно через торрент

  • Поучаствуй (в качестве покупателя) в любых пяти совместных покупках (кроме завершённых и "Моментальных") и получи группу "Новичок" навсегда -> ссылка на раздел
  • Получай до 480 рублей за каждого приглашенного пользователя!
    представляем Вам очередное расширение партнерской программы, подробности описаны тут -> ссылка
  • 90% материалов доступно к скачиванию после простой регистрации!
    Если же ты хочешь скачивать материалы без требования оставлять отзывы то получи группу "Новичок", 10 способов повышения описаны тут -> ссылка
  • К сожалению количество битых ссылок растет и мы уже не можем их оперативно восстанавливать поэтому просим помощи у каждого нашего пользователя.
    С сегодняшнего дня, за каждую восстановленную ссылку мы заплатим Вам.
    Подробнее тут -> ссылка
  • Перенесем твои заслуги с другого ресурса!
    Мы понимаем как сложно прокачивать аккаунты на форумах, вроде раскачал аккаунт, а тут появляется ресурс в 100 раз круче но тоже с системой прокачки и снова качать аккаунт...
    Предлагаем вам перенести Ваши заслуги на другом подобном ресурсе к нам.
    Подробности описаны тут -> ссылка
  • Вы можете получать по 2.5% с каждой покупки и продажи на маркете! Подробности в теме Партнёрская программа
Если Вы не хотите скачивать, Вы всегда можетепосмотретьонлайн, просто нажмите кнопку ниже :

Открыть плеер

Torrent_Bot

Торрент-Бот
Бот форума
4 Окт 2016
92
160
20



Название: Последние дни американской преступности
Оригинальное название: The Last Days of American Crime
Год выхода: 2020
Жанр: боевик, криминал, фантастика
Режиссер: Оливье Мегатон
В ролях: Майкл Питт, Шарлто Копли, Эдгар Рамирес, Анна Брюстер, Карел Нель, Джессика Энсти, Инге Бекманн, Дэниэл Фокс, Шон Майкл, Тамер Барджаг

О фильме: Недалёкое будущее. Правительство США объявляет о скором внедрении системы контроля разума, способной подавлять криминальные импульсы, следовательно, преступность исчезнет. Страна готовится к новому порядку и погрязает в хаосе, а Грэм Брик решает пойти на последнее дело с непроверенной командой, чтобы успеть провернуть ограбление до рокового дедлайна.




Страна: США
Студия: Mandalay Pictures, Radical Pictures, Radical Studios
Продолжительность: 02:29:02
Перевод: Профессиональный (многоголосый, закадровый) | HDRezka Studio

Внимание: Присутствует ненормативная лексика

Формат: MKV
Качество: WEBRip 720p
Видео: MPEG-4 AVC, 1280x534 (2.40:1), 24.000 fps, 4098 Kbps, 0.250 bit/pixel
Аудио #01: 48 kHz, AC3, 5.1, 448 Kbps | MVO | RUS |
Аудио #02: 48 kHz, AC3, 5.1, 640 Kbps | Оригинал | ENG |
Субтитры: Русские (Forced, Full), английские


ОтчетМедиаИнфо
General
Unique ID : 201478478677883811430370783032233289161 (0x979357F128800E7D94EDC122D6D9E5C9)
Complete name : C:The.Last.Days.of.American.Crime.2020.720p.NF.WEB.DDP5.1.Atmos.x264-NTbThe.Last.Days.of.American.Crime.2020.720p.NF.WEBRip.ExKinoRay.mkv
Format : Matroska
Format version : Version 2
File size : 5.51 GiB
Duration : 2 h 29 min
Overall bit rate : 5 291 kb/s
Movie name : The Last Days of American Crime 2020 from ExKinoRay
Encoded date : UTC 2020-06-09 23:45:59
Writing application : mkvmerge v5.6.0 ('Kenya Kane') built on May 27 2012 16:44:04
Writing library : libebml v1.2.3 + libmatroska v1.3.0

Video
ID : 1
Format : AVC
Format/Info : Advanced Video Codec
Format profile : [email protected]
Format settings, CABAC : Yes
Format settings, ReFrames : 12 frames
Codec ID : V_MPEG4/ISO/AVC
Duration : 2 h 29 min
Bit rate : 4 098 kb/s
Width : 1 280 pixels
Height : 534 pixels
Display aspect ratio : 2.40:1
Frame rate mode : Constant
Frame rate : 24.000 FPS
Color space : YUV
Chroma subsampling : 4:2:0
Bit depth : 8 bits
Scan type : Progressive
Bits/(Pixel*Frame) : 0.250
Stream size : 4.27 GiB (77%)
Writing library : x264 core 160 r3000+55 7d98a0e patched [(8 & 10)[email protected] X86_64]
Encoding settings : cabac=1 / ref=12 / deblock=1:-3:-3 / analyse=0x3:0x133 / me=umh / subme=10 / psy=1 / fade_compensate=0.00 / psy_rd=1.00:0.15 / mixed_ref=1 / me_range=48 / chroma_me=1 / trellis=2 / 8x8dct=1 / cqm=0 / deadzone=21,11 / fast_pskip=0 / chroma_qp_offset=-3 / threads=12 / lookahead_threads=2 / sliced_threads=0 / nr=0 / decimate=0 / interlaced=0 / bluray_compat=0 / constrained_intra=0 / fgo=0 / bframes=8 / b_pyramid=2 / b_adapt=2 / b_bias=0 / direct=3 / weightb=1 / open_gop=0 / weightp=2 / keyint=250 / keyint_min=24 / scenecut=40 / intra_refresh=0 / rc=crf / mbtree=0 / crf=16.5000 / qcomp=0.60 / qpmin=0:0:0 / qpmax=69:69:69 / qpstep=4 / ip_ratio=1.30 / pb_ratio=1.20 / aq=3:0.80 / aq-sensitivity=10.00 / aq-factor=1.00:1.00:1.00 / aq2=0 / aq3=0
Default : Yes
Forced : No

Audio #1
ID : 2
Format : AC-3
Format/Info : Audio Coding 3
Mode extension : CM (complete main)
Format settings, Endianness : Big
Codec ID : A_AC3
Duration : 2 h 29 min
Bit rate mode : Constant
Bit rate : 448 kb/s
Channel(s) : 6 channels
Channel positions : Front: L C R, Side: L R, LFE
Sampling rate : 48.0 kHz
Frame rate : 31.250 FPS (1536 spf)
Compression mode : Lossy
Stream size : 478 MiB (8%)
Title : MVO | HDRezka Studio
Language : Russian
Default : Yes
Forced : No

Audio #2
ID : 3
Format : AC-3
Format/Info : Audio Coding 3
Mode extension : CM (complete main)
Format settings, Endianness : Big
Codec ID : A_AC3
Duration : 2 h 29 min
Bit rate mode : Constant
Bit rate : 640 kb/s
Channel(s) : 6 channels
Channel positions : Front: L C R, Side: L R, LFE
Sampling rate : 48.0 kHz
Frame rate : 31.250 FPS (1536 spf)
Compression mode : Lossy
Stream size : 682 MiB (12%)
Language : English
Default : No
Forced : No

Text #1
ID : 4
Format : UTF-8
Codec ID : S_TEXT/UTF8
Codec ID/Info : UTF-8 Plain Text
Title : Forced
Language : Russian
Default : Yes
Forced : No

Text #2
ID : 5
Format : UTF-8
Codec ID : S_TEXT/UTF8
Codec ID/Info : UTF-8 Plain Text
Title : Full
Language : Russian
Default : No
Forced : No

Text #3
ID : 6
Format : UTF-8
Codec ID : S_TEXT/UTF8
Codec ID/Info : UTF-8 Plain Text
Title : SDH
Language : English
Default : No
Forced : No





Релиз от:

Автор релиза:
 

Вложения

  • 28,5 KB Просмотры: 0
    Личеров 0
    Сидеров 0
    Файлов 1
    Объем 5,5 GB

Привет!

Мы группа людей которые решили помочь другим в решении их проблем, а так же пользователям с поиском самых свежих и качественных инфопродуктов. За 4 с небольшим месяца мы создали этот форум на который заходят ежедневно тысячи человек и посещаемость постоянно растёт. Мы создали панель лицензирования для защиты PHP скриптов от воровства и SEO панель для мониторинга наших сайтов и выбора верной стратегии их развития. Мы надеемся что то что мы создали пригодится Вам и возможно Вы поможете нам развиваться и совершенствоваться вместе с Вами.

Статистика форума

Темы
406.657
Сообщения
465.113
Пользователи
84.665
Новый пользователь
koleg

Приложения форума для iOS и Android


У ркн там нет власти ;)
Приватные разговоры
Помощь Пользователи
    Вы не присоединились ни к одной комнате.