За последнюю неделю опубликовано 60 новых материалов.
Инструкция новичку Путеводитель по форуму Прокси для Telegram Показать подсказки , это бомба!

Скачать Последние дни американской преступности / The Last Days of American Crime (2020) WEBRip 1080p | P, L бесплатно через торрент

  • Поучаствуй (в качестве покупателя) в любых пяти совместных покупках (кроме завершённых и "Моментальных") и получи группу "Новичок" навсегда -> ссылка на раздел
  • Получай до 480 рублей за каждого приглашенного пользователя!
    представляем Вам очередное расширение партнерской программы, подробности описаны тут -> ссылка
  • 90% материалов доступно к скачиванию после простой регистрации!
    Если же ты хочешь скачивать материалы без требования оставлять отзывы то получи группу "Новичок", 10 способов повышения описаны тут -> ссылка
  • К сожалению количество битых ссылок растет и мы уже не можем их оперативно восстанавливать поэтому просим помощи у каждого нашего пользователя.
    С сегодняшнего дня, за каждую восстановленную ссылку мы заплатим Вам.
    Подробнее тут -> ссылка
  • Перенесем твои заслуги с другого ресурса!
    Мы понимаем как сложно прокачивать аккаунты на форумах, вроде раскачал аккаунт, а тут появляется ресурс в 100 раз круче но тоже с системой прокачки и снова качать аккаунт...
    Предлагаем вам перенести Ваши заслуги на другом подобном ресурсе к нам.
    Подробности описаны тут -> ссылка
  • Вы можете получать по 2.5% с каждой покупки и продажи на маркете! Подробности в теме Партнёрская программа
Если Вы не хотите скачивать, Вы всегда можетепосмотретьонлайн, просто нажмите кнопку ниже :

Открыть плеер

Torrent_Bot

Торрент-Бот
Бот форума
4 Окт 2016
92
163
20



Информация о фильме
Название: Последние дни американской преступности
Оригинальное название: The Last Days of American Crime
Год выхода: 2020
Жанр: боевик, триллер, криминал
Режиссер: Оливье Мегатон
В ролях: Майкл Питт, Шарлто Копли, Эдгар Рамирес, Анна Брюстер, Карел Нель, Джессика Энсти, Инге Бекманн, Дэниэл Фокс, Шон Майкл, Тамер Барджаг

О фильме:
Дело развернется в недалеком будущем, когда правительство США объявляет о скором внедрении системы контроля разума, способной подавить все криминальные импульсы. Готовящаяся к новому порядку страна погрязает в хаосе, а Грэм Брик решает пойти на свое главное дело с непроверенной командой, пытаясь успеть провернуть ограбление до рокового дедлайна.
ПРИСУТСТВУЕТ НЕНОРМАТИВНАЯ ЛЕКСИКА - HDRezka Studio



Страна: США, ЮАР
Студия: Mandalay Pictures, Radical Pictures, Radical Studios
Продолжительность: 02:29:02
Перевод: Профессиональный многоголосый, закадровый [HDRezka Studio]; любительский многоголосый, закадровый [WestFilm]
Реклама: отсутствует

Файл
Кодек: H.264
Качество: WEBRip 1080p
Видео: AVC, 1920x1080 (16:9), 24 fps ~ 4000 Kbps
Звук:
AC3, 48 KHz, 6 ch ~ 448 Kb/s (HDRezka Studio)
AC3, 48 KHz, 2 ch ~ 192 Kb/s (WestFilm)
AC3, 48 KHz, 6 ch ~ 640 Kb/s (английский)
Субтитры: русские, английские

СЭМПЛ

MI:
General
Unique ID : 223720826417315401675430604021659743896 (0xA84F105A4F4887A18C730B351E2E3698)
Complete name : J:wotThe.Last.Days.of.American.Crime.2020.1080p.mkv
Format : Matroska
Format version : Version 4 / Version 2
File size : 5.23 GiB
Duration : 2h 29mn
Overall bit rate mode : Variable
Overall bit rate : 5 024 Kbps
Movie name : The.Last.Days.of.American.Crime.2020
Encoded date : UTC 2020-06-09 19:07:18
Writing application : mkvmerge v7.7.0 ('Six Voices') 32bit built on Feb 28 2015 23:23:00
Writing library : libebml v1.3.1 + libmatroska v1.4.2
Attachements : small_cover.jpg / small_cover_land.jpg / cover.jpg / cover_land.jpg
_STATISTICS_WRITING_APP : mkvmerge v7.7.0 ('Six Voices') 32bit built on Feb 28 2015 23:23:00
_STATISTICS_WRITING_DATE_UTC : 2020-06-09 19:07:18
_STATISTICS_TAGS : BPS DURATION NUMBER_OF_FRAMES NUMBER_OF_BYTES
DURATION : 02:29:01.952000000
NUMBER_OF_FRAMES : 279436
NUMBER_OF_BYTES : 500749312

Video
ID : 1
Format : AVC
Format/Info : Advanced Video Codec
Format profile : [email protected]
Format settings, CABAC : Yes
Format settings, ReFrames : 3 frames
Codec ID : V_MPEG4/ISO/AVC
Duration : 2h 29mn
Bit rate mode : Variable
Bit rate : 3 644 Kbps
Nominal bit rate : 3 830 Kbps
Maximum bit rate : 5 745 Kbps
Width : 1 920 pixels
Height : 1 080 pixels
Display aspect ratio : 16:9
Frame rate mode : Constant
Frame rate : 24.000 fps
Color space : YUV
Chroma subsampling : 4:2:0
Bit depth : 8 bits
Scan type : Progressive
Bits/(Pixel*Frame) : 0.073
Stream size : 3.79 GiB (73%)
Title : The.Last.Days.of.American.Crime.2020.1080p.NF-FGT
Writing library : x264 core 148 r2717 0d2410d
Encoding settings : cabac=1 / ref=3 / deblock=1:0:0 / analyse=0x1:0x111 / me=umh / subme=10 / psy=1 / psy_rd=1.00:0.00 / mixed_ref=1 / me_range=24 / chroma_me=1 / trellis=2 / 8x8dct=0 / cqm=0 / deadzone=21,11 / fast_pskip=1 / chroma_qp_offset=-2 / threads=8 / lookahead_threads=1 / sliced_threads=0 / nr=0 / decimate=1 / interlaced=0 / bluray_compat=0 / stitchable=1 / constrained_intra=0 / bframes=2 / b_pyramid=0 / b_adapt=2 / b_bias=0 / direct=3 / weightb=1 / open_gop=0 / weightp=2 / keyint=250 / keyint_min=24 / scenecut=0 / intra_refresh=0 / rc_lookahead=48 / rc=2pass / mbtree=1 / bitrate=3830 / ratetol=1.0 / qcomp=0.50 / qpmin=6 / qpmax=51 / qpstep=4 / cplxblur=20.0 / qblur=0.5 / vbv_maxrate=5745 / vbv_bufsize=7660 / nal_hrd=vbr / filler=0 / ip_ratio=1.40 / aq=1:1.00
Language : English
Default : Yes
Forced : No

Audio #1
ID : 2
Format : AC-3
Format/Info : Audio Coding 3
Mode extension : CM (complete main)
Format settings, Endianness : Big
Codec ID : A_AC3
Duration : 2h 29mn
Bit rate mode : Constant
Bit rate : 448 Kbps
Channel(s) : 6 channels
Channel positions : Front: L C R, Side: L R, LFE
Sampling rate : 48.0 KHz
Compression mode : Lossy
Delay relative to video : 672ms
Stream size : 478 MiB (9%)
Title : hdrezka
Language : Russian
Default : Yes
Forced : No

Audio #2
ID : 3
Format : AC-3
Format/Info : Audio Coding 3
Mode extension : CM (complete main)
Format settings, Endianness : Big
Codec ID : A_AC3
Duration : 2h 29mn
Bit rate mode : Constant
Bit rate : 192 Kbps
Channel(s) : 2 channels
Channel positions : Front: L R
Sampling rate : 48.0 KHz
Compression mode : Lossy
Delay relative to video : 1s 0ms
Stream size : 205 MiB (4%)
Title : westfilm
Language : Russian
Default : No
Forced : No

Audio #3
ID : 4
Format : AC-3
Format/Info : Audio Coding 3
Mode extension : CM (complete main)
Format settings, Endianness : Big
Codec ID : A_AC3
Duration : 2h 29mn
Bit rate mode : Constant
Bit rate : 640 Kbps
Channel(s) : 6 channels
Channel positions : Front: L C R, Side: L R, LFE
Sampling rate : 48.0 KHz
Compression mode : Lossy
Stream size : 682 MiB (13%)
Language : English
Default : No
Forced : No

Text #1
ID : 5
Format : UTF-8
Codec ID : S_TEXT/UTF8
Codec ID/Info : UTF-8 Plain Text
Title : Russian
Language : Russian
Default : No
Forced : No

Text #2
ID : 6
Format : UTF-8
Codec ID : S_TEXT/UTF8
Codec ID/Info : UTF-8 Plain Text
Title : English [SDH]
Language : English
Default : No
Forced : No

Скриншоты
 

Вложения

  • 27 KB Просмотры: 0
    Личеров 0
    Сидеров 0
    Файлов 1
    Объем 5,2 GB

Привет!

Мы группа людей которые решили помочь другим в решении их проблем, а так же пользователям с поиском самых свежих и качественных инфопродуктов. За 4 с небольшим месяца мы создали этот форум на который заходят ежедневно тысячи человек и посещаемость постоянно растёт. Мы создали панель лицензирования для защиты PHP скриптов от воровства и SEO панель для мониторинга наших сайтов и выбора верной стратегии их развития. Мы надеемся что то что мы создали пригодится Вам и возможно Вы поможете нам развиваться и совершенствоваться вместе с Вами.

Статистика форума

Темы
406.695
Сообщения
465.153
Пользователи
84.760
Новый пользователь
sevoyan

Приложения форума для iOS и Android


У ркн там нет власти ;)
Приватные разговоры
Помощь Пользователи
    Вы не присоединились ни к одной комнате.