За последнюю неделю опубликовано 0 новых материалов.
Инструкция новичку Путеводитель по форуму Прокси для Telegram Показать подсказки , это бомба!

Скачать После тебя (2016) WEB-DLRip-AVC от ExKinoRay | iTunes Russia бесплатно через торрент

  • Поучаствуй (в качестве покупателя) в любых пяти совместных покупках (кроме завершённых и "Моментальных") и получи группу "Новичок" навсегда -> ссылка на раздел
  • Получай до 480 рублей за каждого приглашенного пользователя!
    представляем Вам очередное расширение партнерской программы, подробности описаны тут -> ссылка
  • 90% материалов доступно к скачиванию после простой регистрации!
    Если же ты хочешь скачивать материалы без требования оставлять отзывы то получи группу "Новичок", 10 способов повышения описаны тут -> ссылка
  • К сожалению количество битых ссылок растет и мы уже не можем их оперативно восстанавливать поэтому просим помощи у каждого нашего пользователя.
    С сегодняшнего дня, за каждую восстановленную ссылку мы заплатим Вам.
    Подробнее тут -> ссылка
  • Перенесем твои заслуги с другого ресурса!
    Мы понимаем как сложно прокачивать аккаунты на форумах, вроде раскачал аккаунт, а тут появляется ресурс в 100 раз круче но тоже с системой прокачки и снова качать аккаунт...
    Предлагаем вам перенести Ваши заслуги на другом подобном ресурсе к нам.
    Подробности описаны тут -> ссылка
  • Вы можете получать по 2.5% с каждой покупки и продажи на маркете! Подробности в теме Партнёрская программа
Если Вы не хотите скачивать, Вы всегда можетепосмотретьонлайн, просто нажмите кнопку ниже :

Открыть плеер

Torrent_Bot

Торрент-Бот
Бот форума
4 Окт 2016
79
196
20


Информация о фильме
Оригинальное название: После тебя
Год выпуска: 2016
Жанр:Драма
Режиссер: Анна Матисон
В ролях: Сергей Безруков, Анастасия Безрукова, Алёна Бабенко, Карина Андоленко, Владимир Меньшов, Мария Смольникова, Тамара Акулова, Степан Куликов, Галина Бокашевская, Сергей Вершинин


О фильме: «Чтобы сделать что-то, нужно или от рождения быть отчаянным, или чтобы обстоятельства стали отчаянными». Так думает Алексей Темников, поставленный жизнью в те самые отчаянные обстоятельства, когда важным остается лишь одно: «Что я оставлю после себя?» Вопрос, важный для любого мужчины, обострен до предела тем, что Темников — гениальный танцор, лишенный возможности танцевать. Травма, полученная на сцене 20 лет назад и прервавшая его карьеру, прогрессирует, и совсем скоро Темников не сможет ходить, что для него равносильно смерти. Помочь или просто поддержать Темникова никто не может, и не потому, что нет желающих, а потому, что он сам этого категорически не желает. Тяжелый характер и неоспоримый талант превратили его жизнь в тотальное одиночество.





Страна: Россия
Студия: Production Value WorldWide
Продолжительность: 01:55:12
Перевод: Не требуется (русский) | iTunes


Файл
Формат: MKV
Качество: WEB-DLRip-AVC
Видео: AVC, 1024x430 (2.40:1), 1606 kbps, 25,000 fps, 0,146 bpp
Аудио: 48 kHz, AC3, 5.1, 384 Kbps | RUS |

Навигация по главам: есть


MI
x264 [info]: profile High, level 4.1
x264 [info]: frame I:974 Avg QP:14.78 size: 60393
x264 [info]: frame P:46539 Avg QP:18.79 size: 16931
x264 [info]: frame B:125287 Avg QP:20.52 size: 4311
---------------------------------------
General
Unique ID : 212733891552031149022877949079726995205 (0xA00B0EA42CBE7C2FB8B9B8EDC8BA3705)
Complete name : D:posle.Tebia.2016.WEB-DLRip.AVC.ExKinoRay.mkv
Format : Matroska
Format version : Version 2
File size : 1.60 GiB
Duration : 1 h 55 min
Overall bit rate : 1 991 kb/s
Movie name : После тебя (2016) from ExKinoRay
Encoded date : UTC 2017-04-15 21:51:56
Writing application : mkvmerge v5.8.0 ('No Sleep / Pillow') built on Sep 2 2012 15:37:04
Writing library : libebml v1.2.3 + libmatroska v1.3.0

Video
ID : 1
Format : AVC
Format/Info : Advanced Video Codec
Format profile : [email protected]
Format settings, CABAC : Yes
Format settings, ReFrames : 11 frames
Codec ID : V_MPEG4/ISO/AVC
Duration : 1 h 55 min
Bit rate : 1 606 kb/s
Width : 1 024 pixels
Height : 430 pixels
Display aspect ratio : 2.40:1
Frame rate mode : Constant
Frame rate : 25.000 FPS
Color space : YUV
Chroma subsampling : 4:2:0
Bit depth : 8 bits
Scan type : Progressive
Bits/(Pixel*Frame) : 0.146
Stream size : 1.26 GiB (79%)
Title : Enigma
Writing library : x264 core 144 r2525 40bb568
Encoding settings : cabac=1 / ref=11 / deblock=1:-2:-2 / analyse=0x3:0x113 / me=umh / subme=10 / psy=1 / psy_rd=1.00:0.05 / mixed_ref=1 / me_range=32 / chroma_me=1 / trellis=2 / 8x8dct=1 / cqm=0 / deadzone=21,11 / fast_pskip=1 / chroma_qp_offset=-3 / threads=12 / lookahead_threads=2 / sliced_threads=0 / nr=0 / decimate=0 / interlaced=0 / bluray_compat=0 / constrained_intra=0 / bframes=9 / b_pyramid=2 / b_adapt=2 / b_bias=0 / direct=3 / weightb=1 / open_gop=0 / weightp=2 / keyint=250 / keyint_min=25 / scenecut=40 / intra_refresh=0 / rc_lookahead=40 / rc=2pass / mbtree=0 / bitrate=1606 / ratetol=1.0 / qcomp=0.60 / qpmin=0 / qpmax=51 / qpstep=4 / cplxblur=20.0 / qblur=0.5 / vbv_maxrate=50000 / vbv_bufsize=62500 / nal_hrd=none / filler=0 / ip_ratio=1.40 / pb_ratio=1.30 / aq=1:1.00
Default : Yes
Forced : No
Color range : Limited
Color primaries : BT.709
Transfer characteristics : BT.709
Matrix coefficients : BT.709

Audio
ID : 2
Format : AC-3
Format/Info : Audio Coding 3
Mode extension : CM (complete main)
Format settings, Endianness : Big
Codec ID : A_AC3
Duration : 1 h 55 min
Bit rate mode : Constant
Bit rate : 384 kb/s
Channel(s) : 6 channels
Channel positions : Front: L C R, Side: L R, LFE
Sampling rate : 48.0 kHz
Frame rate : 31.250 FPS (1536 spf)
Compression mode : Lossy
Stream size : 316 MiB (19%)
Title : iTunes
Language : Russian
Default : Yes
Forced : No

Menu
00:00:00.000 : ru:Chapter 01
00:03:57.080 : ru:Chapter 02
00:11:55.680 : ru:Chapter 03
00:17:03.720 : ru:Chapter 04
00:22:51.720 : ru:Chapter 05
00:27:41.440 : ru:Chapter 06
00:33:19.440 : ru:Chapter 07
00:38:21.960 : ru:Chapter 08
00:41:45.160 : ru:Chapter 09
00:47:07.800 : ru:Chapter 10
00:53:41.320 : ru:Chapter 11
00:59:03.120 : ru:Chapter 12
01:04:42.560 : ru:Chapter 13
01:11:35.240 : ru:Chapter 14
01:18:54.040 : ru:Chapter 15
01:25:57.480 : ru:Chapter 16
01:32:33.560 : ru:Chapter 17
01:39:38.280 : ru:Chapter 18
01:46:19.280 : ru:Chapter 19






Релиз от:

Автор релиза:
 

Вложения

  • 17 KB Просмотры: 1
    Личеров 0
    Сидеров 0
    Файлов 1
    Объем 1,6 GB

Привет!

Мы группа людей которые решили помочь другим в решении их проблем, а так же пользователям с поиском самых свежих и качественных инфопродуктов. За 4 с небольшим месяца мы создали этот форум на который заходят ежедневно тысячи человек и посещаемость постоянно растёт. Мы создали панель лицензирования для защиты PHP скриптов от воровства и SEO панель для мониторинга наших сайтов и выбора верной стратегии их развития. Мы надеемся что то что мы создали пригодится Вам и возможно Вы поможете нам развиваться и совершенствоваться вместе с Вами.

Статистика форума

Темы
414.370
Сообщения
475.396
Пользователи
96.561
Новый пользователь
starushka

Приложения форума для iOS и Android


У ркн там нет власти ;)
Приватные разговоры
Помощь Пользователи
    Вы не присоединились ни к одной комнате.