За последнюю неделю опубликовано 30 новых материалов.
Инструкция новичку Путеводитель по форуму Прокси для Telegram Показать подсказки , это бомба!

Скачать Портрет Дженни / Portrait of Jennie (1948) BDRip 1080p от msltel | A, L1 бесплатно через торрент

  • Поучаствуй (в качестве покупателя) в любых пяти совместных покупках (кроме завершённых и "Моментальных") и получи группу "Новичок" навсегда -> ссылка на раздел
  • Получай до 480 рублей за каждого приглашенного пользователя!
    представляем Вам очередное расширение партнерской программы, подробности описаны тут -> ссылка
  • 90% материалов доступно к скачиванию после простой регистрации!
    Если же ты хочешь скачивать материалы без требования оставлять отзывы то получи группу "Новичок", 10 способов повышения описаны тут -> ссылка
  • К сожалению количество битых ссылок растет и мы уже не можем их оперативно восстанавливать поэтому просим помощи у каждого нашего пользователя.
    С сегодняшнего дня, за каждую восстановленную ссылку мы заплатим Вам.
    Подробнее тут -> ссылка
  • Перенесем твои заслуги с другого ресурса!
    Мы понимаем как сложно прокачивать аккаунты на форумах, вроде раскачал аккаунт, а тут появляется ресурс в 100 раз круче но тоже с системой прокачки и снова качать аккаунт...
    Предлагаем вам перенести Ваши заслуги на другом подобном ресурсе к нам.
    Подробности описаны тут -> ссылка
  • Вы можете получать по 2.5% с каждой покупки и продажи на маркете! Подробности в теме Партнёрская программа
Если Вы не хотите скачивать, Вы всегда можетепосмотретьонлайн, просто нажмите кнопку ниже :

Открыть плеер

Torrent_Bot

Торрент-Бот
Бот форума
4 Окт 2016
93
160
20



Название: Портрет Дженни
Оригинальное название: Portrait of Jennie
Год выпуска: 1948
Страна: США
Жанр: фэнтези, драма, мелодрама, детектив
Продолжительность: 01:26:27
Перевод: авторский, любительский одноголосый
Режиссер: Уильям Дитерле
В ролях: Дженнифер Джонс, Джозеф Коттен, Этель Бэрримор, Лиллиан Гиш, Сесил Келлауэй, Дэвид Уэйн (I), Альберт Шарп, Генри Халл, Флоренс Бейтс, Феликс Брессарт, Клем Беванс, Мод Симмонс, Роберт Дадли, Джон Фаррелл, Энн Фрэнсис, Брайан Кит, Нэнси Олсон

О фильме: 1934 год. Нью-Йорк. Бедный и неизвестный художник Эбен Адамс встречает девушку Дженни, которую, как ему кажется, он уже видел. Он рисует её портрет и находит покупателя. При каждом своем появлении Дженни кажется немного старше на несколько лет до такой степени, что вскоре художник уже начинает сомневаться в реальности встреч с ней. При пятом появлении Дженни становится молодой девушкой. Эбен, наконец, рисует её самый лучший портрет, который становится шедевром. Дженни исчезает снова. Влюблённый в свою модель, Эбен пытается найти её... Фильм основан на повести Роберта Натана 1940 года.



Качество: BDRip 1080p
Формат: MKV
Видео: MPEG-4 AVC, 13.7 Mбит/с, 1436x1080
Аудио 1: русский, DTS, 1509 kbps, 2 ch, 48 kHz [авторский, Дмитрий Есарев]
Аудио 2: русский, DTS, 1509 kbps, 2 ch, 48 kHz [закадровый одноголосый, liosaa]
Аудио 3: английский, DTS, 1509 kbps, 2 ch, 48 kHz [оригинал]
Субтитры 1: русские (на песни)
Субтитры 2: русские (liosaa)
Субтитры 3: английские
Субтитры 4: французские
Главы/чаптеры

MediaInfo
Общее
Уникальный идентификатор : 212943196354368621602713134399576636467 (0xA0335E2A302E493A9A89DFA92F287C33)
Полное имя : D:VideoПортрет Дженни.1948.BDRip 1080p msltel.mkv
Формат : Matroska
Версия формата : Version 4
Размер файла : 11,0 Гбайт
Продолжительность : 1 ч. 26 м.
Общий поток : 18,3 Мбит/сек
Название фильма : Rip msltel
Дата кодирования : UTC 2020-07-24 01:59:23
Программа кодирования : mkvmerge v8.2.0 ('World of Adventure') 64bit
Библиотека кодирования : libebml v1.3.1 + libmatroska v1.4.2

Видео
Идентификатор : 1
Формат : AVC
Формат/Информация : Advanced Video Codec
Профиль формата : [email protected]
Настройки формата : CABAC / 5 Ref Frames
Параметр CABAC формата : Да
Параметр RefFrames формата : 5 кадров
Идентификатор кодека : V_MPEG4/ISO/AVC
Продолжительность : 1 ч. 26 м.
Битрейт : 13,7 Мбит/сек
Ширина : 1 436 пикселей
Высота : 1 080 пикселей
Соотношение сторон : 4:3
Режим частоты кадров : Постоянный
Частота кадров : 23,976 (24000/1001) кадра/сек
Цветовое пространство : YUV
Субдискретизация насыщенности : 4:2:0
Битовая глубина : 8 бит
Тип развёртки : Прогрессивная
Бит/(Пиксели*Кадры) : 0.369
Размер потока : 8,30 Гбайт (75%)
Библиотека кодирования : x264 core 159 r2991 1771b55
Настройки программы : cabac=1 / ref=5 / deblock=1:-2:-2 / analyse=0x3:0x113 / me=umh / subme=11 / psy=1 / psy_rd=1.00:0.15 / mixed_ref=1 / me_range=32 / chroma_me=1 / trellis=2 / 8x8dct=1 / cqm=0 / deadzone=21,11 / fast_pskip=0 / chroma_qp_offset=-3 / threads=6 / lookahead_threads=1 / sliced_threads=0 / nr=0 / decimate=1 / interlaced=0 / bluray_compat=0 / constrained_intra=0 / bframes=12 / b_pyramid=2 / b_adapt=2 / b_bias=0 / direct=1 / weightb=1 / open_gop=0 / weightp=2 / keyint=230 / keyint_min=23 / scenecut=40 / intra_refresh=0 / rc_lookahead=40 / rc=crf / mbtree=1 / crf=21.5 / qcomp=0.60 / qpmin=0 / qpmax=69 / qpstep=4 / vbv_maxrate=50000 / vbv_bufsize=62500 / crf_max=0.0 / nal_hrd=none / filler=0 / ip_ratio=1.40 / aq=1:1.00
Язык : English
Default : Да
Forced : Нет

Аудио #1
Идентификатор : 2
Формат : DTS
Формат/Информация : Digital Theater Systems
Идентификатор кодека : A_DTS
Продолжительность : 1 ч. 26 м.
Вид битрейта : Постоянный
Битрейт : 1 509 Кбит/сек
Каналы : 2 канала
Channel layout : L R
Частота : 48,0 КГц
Частота кадров : 93,750 кадра/сек (512 SPF)
Битовая глубина : 16 бит
Метод сжатия : С потерями
Размер потока : 933 Мбайт (8%)
Заголовок : Дмитрий Есарев
Язык : Russian
Default : Да
Forced : Нет

Аудио #2
Идентификатор : 3
Формат : DTS
Формат/Информация : Digital Theater Systems
Идентификатор кодека : A_DTS
Продолжительность : 1 ч. 26 м.
Вид битрейта : Постоянный
Битрейт : 1 509 Кбит/сек
Каналы : 2 канала
Channel layout : L R
Частота : 48,0 КГц
Частота кадров : 93,750 кадра/сек (512 SPF)
Битовая глубина : 16 бит
Метод сжатия : С потерями
Размер потока : 933 Мбайт (8%)
Заголовок : liosaa
Язык : Russian
Default : Нет
Forced : Нет

Аудио #3
Идентификатор : 4
Формат : DTS
Формат/Информация : Digital Theater Systems
Идентификатор кодека : A_DTS
Продолжительность : 1 ч. 26 м.
Вид битрейта : Постоянный
Битрейт : 1 509 Кбит/сек
Каналы : 2 канала
Channel layout : L R
Частота : 48,0 КГц
Частота кадров : 93,750 кадра/сек (512 SPF)
Битовая глубина : 16 бит
Метод сжатия : С потерями
Размер потока : 933 Мбайт (8%)
Заголовок : оригинал
Язык : English
Default : Нет
Forced : Нет

Текст #1
Идентификатор : 5
Формат : UTF-8
Идентификатор кодека : S_TEXT/UTF8
Идентификатор кодека/Информация : UTF-8 Plain Text
Продолжительность : 52 м. 28 с.
Битрейт : 1 бит/сек
Count of elements : 20
Размер потока : 743 байт (0%)
Заголовок : русские на песни
Язык : Russian
Default : Да
Forced : Да

Текст #2
Идентификатор : 6
Формат : UTF-8
Идентификатор кодека : S_TEXT/UTF8
Идентификатор кодека/Информация : UTF-8 Plain Text
Продолжительность : 1 ч. 25 м.
Битрейт : 114 бит/сек
Count of elements : 1249
Размер потока : 72,3 Кбайт (0%)
Заголовок : русские liosaa
Язык : Russian
Default : Нет
Forced : Нет

Текст #3
Идентификатор : 7
Формат : UTF-8
Идентификатор кодека : S_TEXT/UTF8
Идентификатор кодека/Информация : UTF-8 Plain Text
Продолжительность : 1 ч. 24 м.
Битрейт : 79 бит/сек
Count of elements : 1207
Размер потока : 48,9 Кбайт (0%)
Заголовок : английские
Язык : English
Default : Нет
Forced : Нет

Текст #4
Идентификатор : 8
Формат : UTF-8
Идентификатор кодека : S_TEXT/UTF8
Идентификатор кодека/Информация : UTF-8 Plain Text
Продолжительность : 1 ч. 24 м.
Битрейт : 83 бит/сек
Count of elements : 1219
Размер потока : 51,4 Кбайт (0%)
Заголовок : французские
Язык : French
Default : Нет
Forced : Нет

Меню
00:00:00.000 : en:01. Opening Credits / Faith & Hope
00:02:14.760 : en:02. Struggling Artist
00:06:14.457 : en:03. Jennie
00:11:30.648 : en:04. Lasting Impression
00:13:48.494 : en:05. Old Newspaper
00:17:00.436 : en:06. Good Idea
00:20:53.627 : en:07. Selling a Sketch
00:24:08.197 : en:08. Together Again
00:28:29.249 : en:09. Police Assistance
00:30:00.757 : en:10. Old Pete
00:31:44.402 : en:11. Puzzling Picture
00:33:30.842 : en:12. Listening to Stars
00:37:23.199 : en:13. Deep Thoughts
00:40:30.011 : en:14. Preparing a Portrait
00:43:18.638 : en:15. Perfect Pose
00:46:31.664 : en:16. Spiritual Understanding
00:50:07.630 : en:17. Ageless Art
00:51:38.095 : en:18. True Happiness
00:55:09.723 : en:19. Disappointing Departure
01:00:42.556 : en:20. Sad Song
01:03:18.336 : en:21. Sister Mary
01:08:56.507 : en:22. Traveling Expenses
01:10:16.421 : en:23. Story Told
01:14:05.691 : en:24. Land's End Light
01:18:32.499 : en:25. Goodbye
01:21:21.376 : en:26. All That Matters
01:24:27.062 : en:27. Final Note
01:25:12.399 : en:28. End Credits
 

Вложения

  • 56,1 KB Просмотры: 0
    Личеров 0
    Сидеров 0
    Файлов 1
    Объем 11 GB

Привет!

Мы группа людей которые решили помочь другим в решении их проблем, а так же пользователям с поиском самых свежих и качественных инфопродуктов. За 4 с небольшим месяца мы создали этот форум на который заходят ежедневно тысячи человек и посещаемость постоянно растёт. Мы создали панель лицензирования для защиты PHP скриптов от воровства и SEO панель для мониторинга наших сайтов и выбора верной стратегии их развития. Мы надеемся что то что мы создали пригодится Вам и возможно Вы поможете нам развиваться и совершенствоваться вместе с Вами.

Статистика форума

Темы
406.605
Сообщения
465.028
Пользователи
84.390
Новый пользователь
князь владимир

Приложения форума для iOS и Android


У ркн там нет власти ;)
Приватные разговоры
Помощь Пользователи
    Вы не присоединились ни к одной комнате.