За последнюю неделю опубликовано 51 новых материалов.
Инструкция новичку Путеводитель по форуму Прокси для Telegram Показать подсказки , это бомба!

Скачать Полуночники / Midnighters (2017) WEBRip 720p | L2 бесплатно через торрент

  • Поучаствуй (в качестве покупателя) в любых пяти совместных покупках (кроме завершённых и "Моментальных") и получи группу "Новичок" навсегда -> ссылка на раздел
  • Получай до 480 рублей за каждого приглашенного пользователя!
    представляем Вам очередное расширение партнерской программы, подробности описаны тут -> ссылка
  • 90% материалов доступно к скачиванию после простой регистрации!
    Если же ты хочешь скачивать материалы без требования оставлять отзывы то получи группу "Новичок", 10 способов повышения описаны тут -> ссылка
  • К сожалению количество битых ссылок растет и мы уже не можем их оперативно восстанавливать поэтому просим помощи у каждого нашего пользователя.
    С сегодняшнего дня, за каждую восстановленную ссылку мы заплатим Вам.
    Подробнее тут -> ссылка
  • Перенесем твои заслуги с другого ресурса!
    Мы понимаем как сложно прокачивать аккаунты на форумах, вроде раскачал аккаунт, а тут появляется ресурс в 100 раз круче но тоже с системой прокачки и снова качать аккаунт...
    Предлагаем вам перенести Ваши заслуги на другом подобном ресурсе к нам.
    Подробности описаны тут -> ссылка
  • Вы можете получать по 2.5% с каждой покупки и продажи на маркете! Подробности в теме Партнёрская программа
Если Вы не хотите скачивать, Вы всегда можетепосмотретьонлайн, просто нажмите кнопку ниже :

Открыть плеер

Torrent_Bot

Торрент-Бот
Бот форума
4 Окт 2016
91
164
20
Информация о фильме
Название: Полуночники
Оригинальное название: Midnighters

Год выхода: 2017
Жанр: триллер
Режиссер: Джулиус Рамсей
В ролях: Александра Эссоу, Перла Аней-Жардине, Дилан МакТи, Уорд Хортон, Эндрю Ротенберг, Джозеф Андерсон, К.С. Фальдаш, Уильям Блумфилд, Дэвид Спорадора, Мэтт Майерс и другие
О фильме:
Возвращаясь на машине с новогоднего корпоратива, Линдси и Джэфф сбивают незнакомца на пустынной дороге. Телефон там не ловит, поэтому они затаскивают пострадавшего в машину и везут в больницу, но по дороге бедолага перестаёт дышать. Тогда парочка решает протрезветь, прежде чем сдаться полиции, и отвозит тело к себе в гараж. Тем временем младшая сестра Линдси приходит домой, и на нее нападает оказавшийся живым сбитый незнакомец.

3a2d984337c3a69b823fbe8e24727dc0.gif

Страна: США, Graystone Pictures
Продолжительность: 01:34:03
Перевод: Любительский (двухголосый закадровый) | HiWay Grope

Файл
Кодек: MPEG-4 AVC/H.264
Качество: WEBRip 720p
Видео: 1280x530, 23.976 fps, ~3289 kbps, 0.202 bit/pixel
Звук:
Аудио rus: AC3, 48 kHz, 6 ch, 384 Kbps
Субтитры: отсутствуют

Реклама: присутствует

ВНИМАНИЕ! Присутствует ненормативная лексика

Семпл

MediaInfo:
General
Unique ID : 230346941684355098342953948568337190955 (0xAD4B350EE98565078696FF1F6993102B)
Complete name : E:Midnighters.2017.720p.WEBRip.HiWayGropeMidnighters.2017.720p.WEBRip.HiWayGrope.mkv
Format : Matroska
Format version : Version 4 / Version 2
File size : 2.46 GiB
Duration : 1h 34mn
Overall bit rate : 3 747 Kbps
Encoded date : UTC 2018-03-07 15:30:00
Writing application : mkvmerge v18.0.0 ('Apricity') 64-bit
Writing library : libebml v1.3.5 + libmatroska v1.4.8

Video
ID : 1
Format : AVC
Format/Info : Advanced Video Codec
Format profile : [email protected]
Format settings, CABAC : Yes
Format settings, ReFrames : 4 frames
Codec ID : V_MPEG4/ISO/AVC
Duration : 1h 34mn
Bit rate : 3 289 Kbps
Width : 1 280 pixels
Height : 530 pixels
Display aspect ratio : 2.40:1
Frame rate mode : Constant
Frame rate : 23.976 (24000/1001) fps
Standard : NTSC
Color space : YUV
Chroma subsampling : 4:2:0
Bit depth : 8 bits
Scan type : Progressive
Bits/(Pixel*Frame) : 0.202
Stream size : 2.16 GiB (88%)
Language : English
Default : Yes
Forced : No
Color range : Limited
Color primaries : BT.601 NTSC
Transfer characteristics : BT.601
Matrix coefficients : BT.601

Audio
ID : 2
Format : AC-3
Format/Info : Audio Coding 3
Mode extension : CM (complete main)
Format settings, Endianness : Big
Codec ID : A_AC3
Duration : 1h 34mn
Bit rate mode : Constant
Bit rate : 384 Kbps
Channel(s) : 6 channels
Channel positions : Front: L C R, Side: L R, LFE
Sampling rate : 48.0 KHz
Frame rate : 31.250 fps (1536 spf)
Compression mode : Lossy
Stream size : 258 MiB (10%)
Title : rus
Language : Russian
Default : Yes
Forced : No
Скриншоты
71deec193675e75b56917ab68c081975.jpgc9e65dd8299e183904baa993dddc51ea.jpg77728f613462ba969f38eb3028f6ba9e.jpg921246311d0fcf41e4a29ff9d686fef4.jpg
Релиз от: HiWay Grope
 

Вложения

Привет!

Мы группа людей которые решили помочь другим в решении их проблем, а так же пользователям с поиском самых свежих и качественных инфопродуктов. За 4 с небольшим месяца мы создали этот форум на который заходят ежедневно тысячи человек и посещаемость постоянно растёт. Мы создали панель лицензирования для защиты PHP скриптов от воровства и SEO панель для мониторинга наших сайтов и выбора верной стратегии их развития. Мы надеемся что то что мы создали пригодится Вам и возможно Вы поможете нам развиваться и совершенствоваться вместе с Вами.

Статистика форума

Темы
410.573
Сообщения
469.129
Пользователи
86.232
Новый пользователь
aleksa_pukhova

Приложения форума для iOS и Android


У ркн там нет власти ;)
Приватные разговоры
Помощь Пользователи
    Вы не присоединились ни к одной комнате.