За последнюю неделю опубликовано 34 новых материалов.
Инструкция новичку Путеводитель по форуму Прокси для Telegram Показать подсказки , это бомба!

Скачать Полицейский седан / Crown Vic (2019) BDRemux 1080p | P бесплатно через торрент

  • Поучаствуй (в качестве покупателя) в любых пяти совместных покупках (кроме завершённых и "Моментальных") и получи группу "Новичок" навсегда -> ссылка на раздел
  • Получай до 480 рублей за каждого приглашенного пользователя!
    представляем Вам очередное расширение партнерской программы, подробности описаны тут -> ссылка
  • 90% материалов доступно к скачиванию после простой регистрации!
    Если же ты хочешь скачивать материалы без требования оставлять отзывы то получи группу "Новичок", 10 способов повышения описаны тут -> ссылка
  • К сожалению количество битых ссылок растет и мы уже не можем их оперативно восстанавливать поэтому просим помощи у каждого нашего пользователя.
    С сегодняшнего дня, за каждую восстановленную ссылку мы заплатим Вам.
    Подробнее тут -> ссылка
  • Перенесем твои заслуги с другого ресурса!
    Мы понимаем как сложно прокачивать аккаунты на форумах, вроде раскачал аккаунт, а тут появляется ресурс в 100 раз круче но тоже с системой прокачки и снова качать аккаунт...
    Предлагаем вам перенести Ваши заслуги на другом подобном ресурсе к нам.
    Подробности описаны тут -> ссылка
  • Вы можете получать по 2.5% с каждой покупки и продажи на маркете! Подробности в теме Партнёрская программа
Если Вы не хотите скачивать, Вы всегда можетепосмотретьонлайн, просто нажмите кнопку ниже :

Открыть плеер

Torrent_Bot

Торрент-Бот
Бот форума
4 Окт 2016
93
160
20



Информация о фильме
Название: Полицейский седан
Оригинальное название: Crown Vic
Год выхода: 2019
Жанр: Боевик, триллер, драма, криминал, детектив
Режиссер: Джоэл Соуса
В ролях: Скотти Томпсон, Бриджет Мойнэхэн, Дэвид Крамхолц, Томас Джейн, Люк Клеинтенк, Эмма Ишта, Джош Хопкинс, Девон Веркхейзер, Бернард Джонс, Алекс Морф и др.

О фильме:
История об одной незабываемой ночи в жизни опытного офицера полиции Лос-Анджелеса Рэя Манделя и новобранца Ника Холланда, во время охоты на двух убийц полицейских.



Страна: США
Студия: Brittany House Pictures, BondIt Media Capital
Продолжительность: 01:50:21
Перевод: Профессиональный (многоголосый закадровый) | Онлайн кинотеатр

Файл
Кодек: h.264
Качество: BDRemux 1080p
Видео: MPEG-4 AVC, 23.8 Мбит/с, 1920x1080, 23,976 fps
Звук #1: русский, AC3, 2.0 ch, 48 kHz, 192 kbps | Онлайн кинотеатр
Звук #2: английский, DTS-HD MA, 5.1 ch, 48 kHz, 1925 kbps | Оригинал
Субтитры: английские (полные)
MI:
General
Unique ID : 161717302451789655896274134120575210656 (0x79A99E99A1DE9CA04C0C2FADA41314A0)
Complete name : F:Новая папка (27)Crown.Vic.2019.BDREMUX 1080p.mkv
Format : Matroska
Format version : Version 4
File size : 20.0 GiB
Duration : 1 h 50 min
Overall bit rate mode : Variable
Overall bit rate : 25.9 Mb/s
Movie name : Crown.Vic.2019.BDREMUX 1080p.
Encoded date : UTC 2020-07-08 17:13:21
Writing application : mkvmerge v29.0.0 ('Like It Or Not') 64-bit
Writing library : libebml v1.3.6 + libmatroska v1.4.9
IMDB : tt4558200
TMDB : movie/524659

Video
ID : 1
Format : AVC
Format/Info : Advanced Video Codec
Format profile : [email protected]
Format settings : CABAC / 4 Ref Frames
Format settings, CABAC : Yes
Format settings, RefFrames : 4 frames
Format settings, GOP : M=3, N=24
Codec ID : V_MPEG4/ISO/AVC
Duration : 1 h 50 min
Bit rate mode : Variable
Bit rate : 23.8 Mb/s
Maximum bit rate : 35.0 Mb/s
Width : 1 920 pixels
Height : 1 080 pixels
Display aspect ratio : 16:9
Frame rate mode : Constant
Frame rate : 23.976 (24000/1001) FPS
Standard : NTSC
Color space : YUV
Chroma subsampling : 4:2:0
Bit depth : 8 bits
Scan type : Progressive
Bits/(Pixel*Frame) : 0.478
Stream size : 18.3 GiB (92%)
Title : Crown.Vic.2019.BDREMUX 1080p.
Language : English
Default : Yes
Forced : No
Color range : Limited
Color primaries : BT.709
Transfer characteristics : BT.709
Matrix coefficients : BT.709

Audio #1
ID : 2
Format : AC-3
Format/Info : Audio Coding 3
Commercial name : Dolby Digital
Codec ID : A_AC3
Duration : 1 h 50 min
Bit rate mode : Constant
Bit rate : 192 kb/s
Channel(s) : 2 channels
Channel layout : L R
Sampling rate : 48.0 kHz
Frame rate : 31.250 FPS (1536 SPF)
Bit depth : 16 bits
Compression mode : Lossy
Stream size : 152 MiB (1%)
Title : MVO | Онлайн кинотеатр
Language : Russian
Service kind : Complete Main
Default : Yes
Forced : No

Audio #2
ID : 3
Format : DTS XLL
Format/Info : Digital Theater Systems
Commercial name : DTS-HD Master Audio
Codec ID : A_DTS
Duration : 1 h 50 min
Bit rate mode : Variable
Bit rate : 1 925 kb/s
Channel(s) : 6 channels
Channel layout : C L R Ls Rs LFE
Sampling rate : 48.0 kHz
Frame rate : 93.750 FPS (512 SPF)
Bit depth : 16 bits
Compression mode : Lossless
Stream size : 1.48 GiB (7%)
Title : Original (Eng)
Language : English
Default : No
Forced : No

Text
ID : 4
Format : UTF-8
Codec ID : S_TEXT/UTF8
Codec ID/Info : UTF-8 Plain Text
Duration : 1 h 45 min
Bit rate : 79 b/s
Count of elements : 2112
Stream size : 61.7 KiB (0%)
Title : eng (Full)
Language : English
Default : No
Forced : No

Menu
00:00:00.000 : en:Chapter 1
00:09:11.384 : en:Chapter 2
00:18:51.505 : en:Chapter 3
00:27:17.761 : en:Chapter 4
00:38:53.957 : en:Chapter 5
00:45:42.740 : en:Chapter 6
00:55:58.897 : en:Chapter 7
01:05:54.325 : en:Chapter 8
01:14:48.401 : en:Chapter 9
01:27:30.245 : en:Chapter 10
01:36:13.518 : en:Chapter 11
01:46:27.756 : en:Chapter 12
Скриншоты
 

Вложения

  • 200,5 KB Просмотры: 0
    Личеров 0
    Сидеров 0
    Файлов 1
    Объем 20 GB

Привет!

Мы группа людей которые решили помочь другим в решении их проблем, а так же пользователям с поиском самых свежих и качественных инфопродуктов. За 4 с небольшим месяца мы создали этот форум на который заходят ежедневно тысячи человек и посещаемость постоянно растёт. Мы создали панель лицензирования для защиты PHP скриптов от воровства и SEO панель для мониторинга наших сайтов и выбора верной стратегии их развития. Мы надеемся что то что мы создали пригодится Вам и возможно Вы поможете нам развиваться и совершенствоваться вместе с Вами.

Статистика форума

Темы
406.601
Сообщения
464.985
Пользователи
84.246
Новый пользователь
Jacksn

Приложения форума для iOS и Android


У ркн там нет власти ;)
Приватные разговоры
Помощь Пользователи
    Вы не присоединились ни к одной комнате.