За последнюю неделю опубликовано 48 новых материалов.
Инструкция новичку Путеводитель по форуму Прокси для Telegram Показать подсказки , это бомба!

Скачать Полицейский из Беверли-Хиллз: Трилогия / Beverly Hills Cop: Trilogy (1984-1994) BDRip 720p от KORSAR | D, P, P2, A, L1 | Remastered бесплатно через торрент

  • Поучаствуй (в качестве покупателя) в любых пяти совместных покупках (кроме завершённых и "Моментальных") и получи группу "Новичок" навсегда -> ссылка на раздел
  • Получай до 480 рублей за каждого приглашенного пользователя!
    представляем Вам очередное расширение партнерской программы, подробности описаны тут -> ссылка
  • 90% материалов доступно к скачиванию после простой регистрации!
    Если же ты хочешь скачивать материалы без требования оставлять отзывы то получи группу "Новичок", 10 способов повышения описаны тут -> ссылка
  • К сожалению количество битых ссылок растет и мы уже не можем их оперативно восстанавливать поэтому просим помощи у каждого нашего пользователя.
    С сегодняшнего дня, за каждую восстановленную ссылку мы заплатим Вам.
    Подробнее тут -> ссылка
  • Перенесем твои заслуги с другого ресурса!
    Мы понимаем как сложно прокачивать аккаунты на форумах, вроде раскачал аккаунт, а тут появляется ресурс в 100 раз круче но тоже с системой прокачки и снова качать аккаунт...
    Предлагаем вам перенести Ваши заслуги на другом подобном ресурсе к нам.
    Подробности описаны тут -> ссылка
  • Вы можете получать по 2.5% с каждой покупки и продажи на маркете! Подробности в теме Партнёрская программа
Если Вы не хотите скачивать, Вы всегда можетепосмотретьонлайн, просто нажмите кнопку ниже :

Открыть плеер

Torrent_Bot

Торрент-Бот
Бот форума
4 Окт 2016
93
160
20

Полицейский из Беверли-Хиллз: Трилогия
Beverly Hills Cop: Trilogy


Страна: США
Жанр: боевик, триллер, комедия, криминал
Год выпуска: 1984, 1987, 1994
Продолжительность: 01:45:04, 01:42:59, 01:44:12
Перевод: Профессиональный (полное дублирование), Профессиональный (многоголосый, закадровый), Профессиональный (двухголосый, закадровый), Авторский, Любительский
Субтитры: русские, английские.


Режиссер: Мартин Брест / Martin Brest, Тони Скотт / Tony Scott, Джон Лэндис / John Landis


В ролях: Эдди Мёрфи(Det. Axel Foley), Джадж Райнхолд(Det. Sgt. William «Billy» Rosewood), Гектор Элизондо(Jon Flint), Тереза Рэндл(Janice), Джон Тенни(Levine), Джои Траволта(Giolito), Юджин Колльер(Leppert), Джимми Ортега(Rondell), Усон Илам(Pederson), Рэй Лайкинс(Nixon), Тим Гилберт(McKee), Рик Эйвери(Cline)


Описание: История подвигов по поимке преступников веселого и находчивого полицейского Акселя.





Полицейский из Беверли-Хиллз / Beverly Hills Cop (1984) BDRip 720p от KORSAR | P, P2, A | Remastered
Полицейский из Беверли-Хиллз
Beverly Hills Cop
«In Detroit a cop learns to take the heat. In L.A. he learns to keep his cool»


Страна: США
Жанр: боевик, комедия, криминал.
Год выпуска: 1984
Продолжительность: 01:45:04
Перевод: Профессиональный (многоголосый, закадровый), Профессиональный (двухголосый, закадровый), Авторский
Субтитры: русские, английские.


Режиссер: Мартин Брест / Martin Brest


В ролях: Эдди Мёрфи(Axel Foley), Джадж Райнхолд(Det. Billy Rosewood), Джон Эштон(Sgt. Taggart), Лиза Эйльбахер(Jenny Summers), Ронни Кокс(Lt. Bogomil), Стивен Беркофф(Victor Maitland), Джеймс Руссо(Mikey Tandino), Джонатан Бэнкс(Zack), Стивен Эллиот(Chief Hubbard), Гилберт Р. Хилл(Inspector Todd), Арт Кимбро(Det. Foster), Джоэл Бэйли(Det. McCabe)


Описание: Чернокожий детройтский полицейский встречается со школьным другом, которого долго не видел, и вдруг того убивают. В поисках убийц полицейский едет в Лос-Анджелес.








Качество: BDRip 720p
Контейнер: MKV

Видео: AVC, 1280x720 (16:9), 10000 kbps, 23,976 fps, 0,453 bpp
Аудио №01: русский / AC3 / 5.1 / 48 kHz / 640 kbps / MVO ( Киномания )
Аудио №02: русский / AC3 / 5.1 / 48 kHz / 640 kbps / MVO
Аудио №03: русский / AC3 / 5.1 / 48 kHz / 640 kbps / MVO
Аудио №04: русский / AC3 / 2.0 / 48 kHz / 192 kbps / MVO ( CTC )
Аудио №05: русский / AC3 / 2.0 / 48 kHz / 192 kbps / MVO ( HTB+ )
Аудио №06: русский / AC3 / 2.0 / 48 kHz / 192 kbps / DVO ( Премьер Видео Фильм )
Аудио №07: русский / AC3 / 5.1 / 48 kHz / 640 kbps / AVO ( Михалёв )
Аудио №08: русский / AC3 / 5.1 / 48 kHz / 640 kbps / AVO ( Володарский )
Аудио №09: русский / AC3 / 2.0 / 48 kHz / 192 kbps / AVO ( Горчаков )
Аудио №10: русский / AC3 / 5.1 / 48 kHz / 640 kbps / AVO ( Пучков ака Goblin ) | ненормативная лексика
Аудио №11: русский / AC3 / 2.0 / 48 kHz / 192 kbps / AVO ( Иванов )
Аудио №12: русский / AC3 / 2.0 / 48 kHz / 192 kbps / AVO ( Готлиб )
Аудио №13: русский / AC3 / 5.1 / 48 kHz / 448 kbps / AVO ( Яроцкий )
Аудио №14: английский / AC3 / 5.1 / 48 kHz / 640 kbps
Навигация по главам: есть


Media Info и Скриншоты



**********************************************************
x264 [info]: frame I:1079 Avg QP:18.42 size:162472
x264 [info]: frame P:29167 Avg QP:19.89 size: 88900
x264 [info]: frame B:120920 Avg QP:21.80 size: 42241
**********************************************************
Формат : Matroska
Версия формата : Version 2
Размер файла : 11,8 Гбайт
Продолжительность : 1 ч. 45 м.
Общий поток : 16,1 Мбит/сек
Название фильма : = Полицейский из Беверли-Хиллз / Beverly Hills Cop (1984) BDRip 720p - KORSAR | Remastered =
Дата кодирования : UTC 2020-04-07 21:15:16
Программа кодирования : mkvmerge v5.8.0 ('No Sleep / Pillow') built on Sep 2 2012 15:37:04
Библиотека кодирования : libebml v1.2.3 + libmatroska v1.3.0
Attachment : Yes

Видео
Идентификатор : 1
Формат : AVC
Формат/Информация : Advanced Video Codec
Профиль формата : [email protected]
Параметр CABAC формата : Да
Параметр ReFrames формата : 9 кадров
Идентификатор кодека : V_MPEG4/ISO/AVC
Продолжительность : 1 ч. 45 м.
Битрейт : 10000 Кбит/сек
Ширина : 1280 пикселей
Высота : 720 пикселей
Соотношение сторон : 16:9
Режим частоты кадров : Постоянный
Частота кадров : 23,976 кадра/сек
Цветовое пространство : YUV
Субдискретизация насыщенности : 4:2:0
Битовая глубина : 8 бит
Тип развёртки : Прогрессивная
Бит/(Пиксели*Кадры) : 0.453
Размер потока : 7,11 Гбайт (60%)
Заголовок : Полицейский из Беверли-Хиллз / Beverly Hills Cop (1984) BDRip 720p - KORSAR | Remastered
Библиотека кодирования : x264 core 158 r2984 3759fcb
Настройки программы : cabac=1 / ref=9 / deblock=1:-3:-3 / analyse=0x3:0x113 / me=umh / subme=11 / psy=1 / psy_rd=1.00:0.08 / mixed_ref=1 / me_range=48 / chroma_me=1 / trellis=2 / 8x8dct=1 / cqm=0 / deadzone=21,11 / fast_pskip=0 / chroma_qp_offset=-3 / threads=12 / lookahead_threads=3 / sliced_threads=0 / nr=0 / decimate=0 / interlaced=0 / bluray_compat=0 / constrained_intra=0 / bframes=10 / b_pyramid=2 / b_adapt=2 / b_bias=0 / direct=3 / weightb=1 / open_gop=0 / weightp=2 / keyint=240 / keyint_min=23 / scenecut=40 / intra_refresh=0 / rc_lookahead=60 / rc=2pass / mbtree=0 / bitrate=10000 / ratetol=1.0 / qcomp=0.68 / qpmin=0 / qpmax=69 / qpstep=4 / cplxblur=20.0 / qblur=0.5 / vbv_maxrate=50000 / vbv_bufsize=62500 / nal_hrd=none / filler=0 / ip_ratio=1.25 / pb_ratio=1.30 / aq=3:0.80
Язык : English
Default : Да
Forced : Нет
Основные цвета : BT.709
Характеристики трансфера : BT.709
Коэффициенты матрицы : BT.709

Аудио #1
Идентификатор : 2
Формат : AC-3
Формат/Информация : Audio Coding 3
Расширение режима : CM (complete main)
Параметр Endianness формата : Big
Идентификатор кодека : A_AC3
Продолжительность : 1 ч. 45 м.
Вид битрейта : Постоянный
Битрейт : 640 Кбит/сек
Каналы : 6 каналов
Расположение каналов : Front: L C R, Side: L R, LFE
Частота : 48,0 КГц
Битовая глубина : 16 бит
Метод сжатия : С потерями
Размер потока : 481 Мбайт (4%)
Заголовок : MVO ( Киномания )
Язык : Russian
Default : Да
Forced : Нет

Аудио #2
Идентификатор : 3
Формат : AC-3
Формат/Информация : Audio Coding 3
Расширение режима : CM (complete main)
Параметр Endianness формата : Big
Идентификатор кодека : A_AC3
Продолжительность : 1 ч. 45 м.
Вид битрейта : Постоянный
Битрейт : 640 Кбит/сек
Каналы : 6 каналов
Расположение каналов : Front: L C R, Side: L R, LFE
Частота : 48,0 КГц
Битовая глубина : 16 бит
Метод сжатия : С потерями
Размер потока : 481 Мбайт (4%)
Заголовок : MVO
Язык : Russian
Default : Нет
Forced : Нет

Аудио #3
Идентификатор : 4
Формат : AC-3
Формат/Информация : Audio Coding 3
Расширение режима : CM (complete main)
Параметр Endianness формата : Big
Идентификатор кодека : A_AC3
Продолжительность : 1 ч. 45 м.
Вид битрейта : Постоянный
Битрейт : 640 Кбит/сек
Каналы : 6 каналов
Расположение каналов : Front: L C R, Side: L R, LFE
Частота : 48,0 КГц
Битовая глубина : 16 бит
Метод сжатия : С потерями
Размер потока : 481 Мбайт (4%)
Заголовок : MVO
Язык : Russian
Default : Нет
Forced : Нет

Аудио #4
Идентификатор : 5
Формат : AC-3
Формат/Информация : Audio Coding 3
Расширение режима : CM (complete main)
Параметр Endianness формата : Big
Идентификатор кодека : A_AC3
Продолжительность : 1 ч. 45 м.
Вид битрейта : Постоянный
Битрейт : 192 Кбит/сек
Каналы : 2 канала
Расположение каналов : Front: L R
Частота : 48,0 КГц
Битовая глубина : 16 бит
Метод сжатия : С потерями
Размер потока : 144 Мбайт (1%)
Заголовок : MVO ( CTC )
Язык : Russian
Default : Нет
Forced : Нет

Аудио #5
Идентификатор : 6
Формат : AC-3
Формат/Информация : Audio Coding 3
Расширение режима : CM (complete main)
Параметр Endianness формата : Big
Идентификатор кодека : A_AC3
Продолжительность : 1 ч. 45 м.
Вид битрейта : Постоянный
Битрейт : 192 Кбит/сек
Каналы : 2 канала
Расположение каналов : Front: L R
Частота : 48,0 КГц
Битовая глубина : 16 бит
Метод сжатия : С потерями
Размер потока : 144 Мбайт (1%)
Заголовок : MVO ( HTB+ )
Язык : Russian
Default : Нет
Forced : Нет

Аудио #6
Идентификатор : 7
Формат : AC-3
Формат/Информация : Audio Coding 3
Расширение режима : CM (complete main)
Параметр Endianness формата : Big
Идентификатор кодека : A_AC3
Продолжительность : 1 ч. 45 м.
Вид битрейта : Постоянный
Битрейт : 192 Кбит/сек
Каналы : 2 канала
Расположение каналов : Front: L R
Частота : 48,0 КГц
Битовая глубина : 16 бит
Метод сжатия : С потерями
Размер потока : 144 Мбайт (1%)
Заголовок : DVO ( Премьер Видео Фильм )
Язык : Russian
Default : Нет
Forced : Нет

Аудио #7
Идентификатор : 8
Формат : AC-3
Формат/Информация : Audio Coding 3
Расширение режима : CM (complete main)
Параметр Endianness формата : Big
Идентификатор кодека : A_AC3
Продолжительность : 1 ч. 45 м.
Вид битрейта : Постоянный
Битрейт : 640 Кбит/сек
Каналы : 6 каналов
Расположение каналов : Front: L C R, Side: L R, LFE
Частота : 48,0 КГц
Битовая глубина : 16 бит
Метод сжатия : С потерями
Размер потока : 481 Мбайт (4%)
Заголовок : AVO ( Михалёв )
Язык : Russian
Default : Нет
Forced : Нет

Аудио #8
Идентификатор : 9
Формат : AC-3
Формат/Информация : Audio Coding 3
Расширение режима : CM (complete main)
Параметр Endianness формата : Big
Идентификатор кодека : A_AC3
Продолжительность : 1 ч. 45 м.
Вид битрейта : Постоянный
Битрейт : 640 Кбит/сек
Каналы : 6 каналов
Расположение каналов : Front: L C R, Side: L R, LFE
Частота : 48,0 КГц
Битовая глубина : 16 бит
Метод сжатия : С потерями
Размер потока : 481 Мбайт (4%)
Заголовок : AVO ( Володарский )
Язык : Russian
Default : Нет
Forced : Нет

Аудио #9
Идентификатор : 10
Формат : AC-3
Формат/Информация : Audio Coding 3
Расширение режима : CM (complete main)
Параметр Endianness формата : Big
Идентификатор кодека : A_AC3
Продолжительность : 1 ч. 45 м.
Вид битрейта : Постоянный
Битрейт : 192 Кбит/сек
Каналы : 2 канала
Расположение каналов : Front: L R
Частота : 48,0 КГц
Битовая глубина : 16 бит
Метод сжатия : С потерями
Размер потока : 144 Мбайт (1%)
Заголовок : AVO ( Горчаков )
Язык : Russian
Default : Нет
Forced : Нет

Аудио #10
Идентификатор : 11
Формат : AC-3
Формат/Информация : Audio Coding 3
Расширение режима : CM (complete main)
Параметр Endianness формата : Big
Идентификатор кодека : A_AC3
Продолжительность : 1 ч. 45 м.
Вид битрейта : Постоянный
Битрейт : 640 Кбит/сек
Каналы : 6 каналов
Расположение каналов : Front: L C R, Side: L R, LFE
Частота : 48,0 КГц
Битовая глубина : 16 бит
Метод сжатия : С потерями
Размер потока : 481 Мбайт (4%)
Заголовок : AVO ( Пучков ака Goblin ) | ненормативная лексика
Язык : Russian
Default : Нет
Forced : Нет

Аудио #11
Идентификатор : 12
Формат : AC-3
Формат/Информация : Audio Coding 3
Расширение режима : CM (complete main)
Параметр Endianness формата : Big
Идентификатор кодека : A_AC3
Продолжительность : 1 ч. 45 м.
Вид битрейта : Постоянный
Битрейт : 192 Кбит/сек
Каналы : 2 канала
Расположение каналов : Front: L R
Частота : 48,0 КГц
Битовая глубина : 16 бит
Метод сжатия : С потерями
Размер потока : 144 Мбайт (1%)
Заголовок : AVO ( Иванов )
Язык : Russian
Default : Нет
Forced : Нет

Аудио #12
Идентификатор : 13
Формат : AC-3
Формат/Информация : Audio Coding 3
Расширение режима : CM (complete main)
Параметр Endianness формата : Big
Идентификатор кодека : A_AC3
Продолжительность : 1 ч. 45 м.
Вид битрейта : Постоянный
Битрейт : 192 Кбит/сек
Каналы : 2 канала
Расположение каналов : Front: L R
Частота : 48,0 КГц
Битовая глубина : 16 бит
Метод сжатия : С потерями
Размер потока : 144 Мбайт (1%)
Заголовок : AVO ( Готлиб )
Язык : Russian
Default : Нет
Forced : Нет

Аудио #13
Идентификатор : 14
Формат : AC-3
Формат/Информация : Audio Coding 3
Расширение режима : CM (complete main)
Параметр Endianness формата : Big
Идентификатор кодека : A_AC3
Продолжительность : 1 ч. 45 м.
Вид битрейта : Постоянный
Битрейт : 448 Кбит/сек
Каналы : 6 каналов
Расположение каналов : Front: L C R, Side: L R, LFE
Частота : 48,0 КГц
Битовая глубина : 16 бит
Метод сжатия : С потерями
Размер потока : 337 Мбайт (3%)
Заголовок : AVO ( Яроцкий )
Язык : Russian
Default : Нет
Forced : Нет

Аудио #14
Идентификатор : 15
Формат : AC-3
Формат/Информация : Audio Coding 3
Расширение режима : CM (complete main)
Параметр Endianness формата : Big
Идентификатор кодека : A_AC3
Продолжительность : 1 ч. 45 м.
Вид битрейта : Постоянный
Битрейт : 640 Кбит/сек
Каналы : 6 каналов
Расположение каналов : Front: L C R, Side: L R, LFE
Частота : 48,0 КГц
Битовая глубина : 16 бит
Метод сжатия : С потерями
Размер потока : 481 Мбайт (4%)
Язык : English
Default : Нет
Forced : Нет

Текст #1
Идентификатор : 16
Формат : UTF-8
Идентификатор кодека : S_TEXT/UTF8
Идентификатор кодека/Информация : UTF-8 Plain Text
Заголовок : Киномания
Язык : Russian
Default : Нет
Forced : Нет

Текст #2
Идентификатор : 17
Формат : UTF-8
Идентификатор кодека : S_TEXT/UTF8
Идентификатор кодека/Информация : UTF-8 Plain Text
Заголовок : 'Goblin' - ненормативная лексика
Язык : Russian
Default : Нет
Forced : Нет

Текст #3
Идентификатор : 18
Формат : UTF-8
Идентификатор кодека : S_TEXT/UTF8
Идентификатор кодека/Информация : UTF-8 Plain Text
Заголовок : ненормативная лексика
Язык : Russian
Default : Нет
Forced : Нет

Текст #4
Идентификатор : 19
Формат : UTF-8
Идентификатор кодека : S_TEXT/UTF8
Идентификатор кодека/Информация : UTF-8 Plain Text
Язык : English
Default : Нет
Forced : Нет

Текст #5
Идентификатор : 20
Формат : UTF-8
Идентификатор кодека : S_TEXT/UTF8
Идентификатор кодека/Информация : UTF-8 Plain Text
Заголовок : SDH
Язык : English
Default : Нет
Forced : Нет

Меню
00:00:00.000 : en:Chapter 01
00:10:58.491 : en:Chapter 02
00:19:31.670 : en:Chapter 03
00:36:03.578 : en:Chapter 04
00:45:07.162 : en:Chapter 05
00:49:28.840 : en:Chapter 06
00:58:39.599 : en:Chapter 07
01:13:16.100 : en:Chapter 08
01:23:22.664 : en:Chapter 09
01:38:28.193 : en:Chapter 10
01:41:04.433 : en:Chapter 11
Полицейский из Беверли-Хиллз 2 / Beverly Hills Cop II (1987) BDRip 720p от KORSAR | P, P2, A, L1 | Remastered
Полицейский из Беверли-Хиллз 2
Beverly Hills Cop II
«The Heat's Back On!»


Страна: США
Жанр: боевик, триллер, комедия, криминал
Год выпуска: 1987
Продолжительность: 01:42:59
Перевод: Профессиональный (многоголосый, закадровый), Профессиональный (двухголосый, закадровый), Авторский, Любительский
Субтитры: русские, английские.


Режиссер: Тони Скотт / Tony Scott


В ролях: Эдди Мёрфи(Axel Foley), Джадж Райнхолд(Billy Rosewood), Джон Эштон(John Taggart), Юрген Прохнов(Maxwell Dent), Ронни Кокс(Andrew Bogomil), Бриджит Нильсен(Karla Fry), Аллен Гарфилд(Harold Lutz), Дин Стокуэлл(Chip Cain), Пол Райзер(Jeffrey Friedman), Том ’Тайни’ Листер мл.(Orvis), Гилберт Р. Хилл(Inspector Todd), Пол Гилфойл(Nikos Thomopolis)


Описание: Продолжение подвигов по поимке преступников веселого и находчивого полицейского Акселя. Сексапильная блондинка вместе с группой гангстеров грабит ювелирный магазин. Но неутомимый Аксель тут как тут, на страже порядка и закона.








Качество: BDRip 720p
Контейнер: MKV

Видео: AVC, 1280x544 (2.35:1), 10000 kbps, 23,976 fps, 0,599 bpp
Аудио №01: русский / AC3 / 5.1 / 48 kHz / 640 kbps / MVO ( Киномания )
Аудио №02: русский / AC3 / 5.1 / 48 kHz / 448 kbps / MVO ( R5 )
Аудио №03: русский / AC3 / 5.1 / 48 kHz / 384 kbps / MVO
Аудио №04: русский / AC3 / 2.0 / 48 kHz / 192 kbps / MVO ( Премьер )
Аудио №05: русский / AC3 / 2.0 / 48 kHz / 192 kbps / MVO ( СТС )
Аудио №06: русский / AC3 / 5.1 / 48 kHz / 448 kbps / DVO ( HTB+ )
Аудио №07: русский / AC3 / 5.1 / 48 kHz / 384 kbps / DVO
Аудио №08: русский / AC3 / 5.1 / 48 kHz / 640 kbps / AVO ( Горчаков )
Аудио №09: русский / AC3 / 5.1 / 48 kHz / 640 kbps / AVO ( Михалёв )
Аудио №10: русский / AC3 / 2.0 / 48 kHz / 192 kbps / AVO ( Дохалов )
Аудио №11: русский / AC3 / 5.1 / 48 kHz / 448 kbps / AVO ( Яроцкий )
Аудио №12: русский / AC3 / 2.0 / 48 kHz / 192 kbps / VO
Аудио №13: английский / AC3 / 5.1 / 48 kHz / 640 kbps
Навигация по главам: есть


Media Info и Скриншоты



*******************************************************
x264 [info]: frame I:1150 Avg QP:18.22 size:135669
x264 [info]: frame P:29681 Avg QP:19.68 size: 79121
x264 [info]: frame B:117324 Avg QP:21.82 size: 44443
*******************************************************
Формат : Matroska
Версия формата : Version 2
Размер файла : 11,1 Гбайт
Продолжительность : 1 ч. 42 м.
Общий поток : 15,4 Мбит/сек
Название фильма : = Полицейский из Беверли-Хиллз 2 / Beverly Hills Cop II (1987) BDRip 720p - KORSAR | Remastered =
Дата кодирования : UTC 2020-04-07 22:04:30
Программа кодирования : mkvmerge v5.8.0 ('No Sleep / Pillow') built on Sep 2 2012 15:37:04
Библиотека кодирования : libebml v1.2.3 + libmatroska v1.3.0
Attachment : Yes

Видео
Идентификатор : 1
Формат : AVC
Формат/Информация : Advanced Video Codec
Профиль формата : [email protected]
Параметр CABAC формата : Да
Параметр ReFrames формата : 12 кадров
Идентификатор кодека : V_MPEG4/ISO/AVC
Продолжительность : 1 ч. 42 м.
Битрейт : 10000 Кбит/сек
Ширина : 1280 пикселей
Высота : 544 пикселя
Соотношение сторон : 2,35:1
Режим частоты кадров : Постоянный
Частота кадров : 23,976 кадра/сек
Цветовое пространство : YUV
Субдискретизация насыщенности : 4:2:0
Битовая глубина : 8 бит
Тип развёртки : Прогрессивная
Бит/(Пиксели*Кадры) : 0.599
Размер потока : 6,97 Гбайт (63%)
Заголовок : Полицейский из Беверли-Хиллз 2 / Beverly Hills Cop II (1987) BDRip 720p - KORSAR | Remastered
Библиотека кодирования : x264 core 158 r2984 3759fcb
Настройки программы : cabac=1 / ref=12 / deblock=1:-3:-3 / analyse=0x3:0x113 / me=umh / subme=11 / psy=1 / psy_rd=1.00:0.10 / mixed_ref=1 / me_range=48 / chroma_me=1 / trellis=2 / 8x8dct=1 / cqm=0 / deadzone=21,11 / fast_pskip=0 / chroma_qp_offset=-3 / threads=12 / lookahead_threads=3 / sliced_threads=0 / nr=0 / decimate=0 / interlaced=0 / bluray_compat=0 / constrained_intra=0 / bframes=12 / b_pyramid=2 / b_adapt=2 / b_bias=0 / direct=3 / weightb=1 / open_gop=0 / weightp=2 / keyint=240 / keyint_min=23 / scenecut=40 / intra_refresh=0 / rc_lookahead=60 / rc=2pass / mbtree=0 / bitrate=10000 / ratetol=1.0 / qcomp=0.68 / qpmin=0 / qpmax=69 / qpstep=4 / cplxblur=20.0 / qblur=0.5 / vbv_maxrate=50000 / vbv_bufsize=62500 / nal_hrd=none / filler=0 / ip_ratio=1.25 / pb_ratio=1.30 / aq=3:0.80
Язык : English
Default : Да
Forced : Нет
Основные цвета : BT.709
Характеристики трансфера : BT.709
Коэффициенты матрицы : BT.709

Аудио #1
Идентификатор : 2
Формат : AC-3
Формат/Информация : Audio Coding 3
Расширение режима : CM (complete main)
Параметр Endianness формата : Big
Идентификатор кодека : A_AC3
Продолжительность : 1 ч. 42 м.
Вид битрейта : Постоянный
Битрейт : 640 Кбит/сек
Каналы : 6 каналов
Расположение каналов : Front: L C R, Side: L R, LFE
Частота : 48,0 КГц
Битовая глубина : 16 бит
Метод сжатия : С потерями
Размер потока : 471 Мбайт (4%)
Заголовок : MVO ( Киномания )
Язык : Russian
Default : Да
Forced : Нет

Аудио #2
Идентификатор : 3
Формат : AC-3
Формат/Информация : Audio Coding 3
Расширение режима : CM (complete main)
Параметр Endianness формата : Big
Идентификатор кодека : A_AC3
Продолжительность : 1 ч. 42 м.
Вид битрейта : Постоянный
Битрейт : 448 Кбит/сек
Каналы : 6 каналов
Расположение каналов : Front: L C R, Side: L R, LFE
Частота : 48,0 КГц
Битовая глубина : 16 бит
Метод сжатия : С потерями
Размер потока : 330 Мбайт (3%)
Заголовок : MVO ( R5 )
Язык : Russian
Default : Нет
Forced : Нет

Аудио #3
Идентификатор : 4
Формат : AC-3
Формат/Информация : Audio Coding 3
Расширение режима : CM (complete main)
Параметр Endianness формата : Big
Идентификатор кодека : A_AC3
Продолжительность : 1 ч. 42 м.
Вид битрейта : Постоянный
Битрейт : 384 Кбит/сек
Каналы : 6 каналов
Расположение каналов : Front: L C R, Side: L R, LFE
Частота : 48,0 КГц
Битовая глубина : 16 бит
Метод сжатия : С потерями
Размер потока : 283 Мбайт (2%)
Заголовок : MVO
Язык : Russian
Default : Нет
Forced : Нет

Аудио #4
Идентификатор : 5
Формат : AC-3
Формат/Информация : Audio Coding 3
Расширение режима : CM (complete main)
Параметр Endianness формата : Big
Идентификатор кодека : A_AC3
Продолжительность : 1 ч. 42 м.
Вид битрейта : Постоянный
Битрейт : 192 Кбит/сек
Каналы : 2 канала
Расположение каналов : Front: L R
Частота : 48,0 КГц
Битовая глубина : 16 бит
Метод сжатия : С потерями
Размер потока : 141 Мбайт (1%)
Заголовок : MVO ( Премьер )
Язык : Russian
Default : Нет
Forced : Нет

Аудио #5
Идентификатор : 6
Формат : AC-3
Формат/Информация : Audio Coding 3
Расширение режима : CM (complete main)
Параметр Endianness формата : Big
Идентификатор кодека : A_AC3
Продолжительность : 1 ч. 42 м.
Вид битрейта : Постоянный
Битрейт : 192 Кбит/сек
Каналы : 2 канала
Расположение каналов : Front: L R
Частота : 48,0 КГц
Битовая глубина : 16 бит
Метод сжатия : С потерями
Размер потока : 141 Мбайт (1%)
Заголовок : MVO ( СТС )
Язык : Russian
Default : Нет
Forced : Нет

Аудио #6
Идентификатор : 7
Формат : AC-3
Формат/Информация : Audio Coding 3
Расширение режима : CM (complete main)
Параметр Endianness формата : Big
Идентификатор кодека : A_AC3
Продолжительность : 1 ч. 42 м.
Вид битрейта : Постоянный
Битрейт : 448 Кбит/сек
Каналы : 6 каналов
Расположение каналов : Front: L C R, Side: L R, LFE
Частота : 48,0 КГц
Битовая глубина : 16 бит
Метод сжатия : С потерями
Размер потока : 330 Мбайт (3%)
Заголовок : DVO ( HTB+ )
Язык : Russian
Default : Нет
Forced : Нет

Аудио #7
Идентификатор : 8
Формат : AC-3
Формат/Информация : Audio Coding 3
Расширение режима : CM (complete main)
Параметр Endianness формата : Big
Идентификатор кодека : A_AC3
Продолжительность : 1 ч. 42 м.
Вид битрейта : Постоянный
Битрейт : 384 Кбит/сек
Каналы : 6 каналов
Расположение каналов : Front: L C R, Side: L R, LFE
Частота : 48,0 КГц
Битовая глубина : 16 бит
Метод сжатия : С потерями
Размер потока : 283 Мбайт (2%)
Заголовок : DVO
Язык : Russian
Default : Нет
Forced : Нет

Аудио #8
Идентификатор : 9
Формат : AC-3
Формат/Информация : Audio Coding 3
Расширение режима : CM (complete main)
Параметр Endianness формата : Big
Идентификатор кодека : A_AC3
Продолжительность : 1 ч. 42 м.
Вид битрейта : Постоянный
Битрейт : 640 Кбит/сек
Каналы : 6 каналов
Расположение каналов : Front: L C R, Side: L R, LFE
Частота : 48,0 КГц
Битовая глубина : 16 бит
Метод сжатия : С потерями
Размер потока : 471 Мбайт (4%)
Заголовок : AVO ( Горчаков )
Язык : Russian
Default : Нет
Forced : Нет

Аудио #9
Идентификатор : 10
Формат : AC-3
Формат/Информация : Audio Coding 3
Расширение режима : CM (complete main)
Параметр Endianness формата : Big
Идентификатор кодека : A_AC3
Продолжительность : 1 ч. 42 м.
Вид битрейта : Постоянный
Битрейт : 640 Кбит/сек
Каналы : 6 каналов
Расположение каналов : Front: L C R, Side: L R, LFE
Частота : 48,0 КГц
Битовая глубина : 16 бит
Метод сжатия : С потерями
Размер потока : 471 Мбайт (4%)
Заголовок : AVO ( Михалёв )
Язык : Russian
Default : Нет
Forced : Нет

Аудио #10
Идентификатор : 11
Формат : AC-3
Формат/Информация : Audio Coding 3
Расширение режима : CM (complete main)
Параметр Endianness формата : Big
Идентификатор кодека : A_AC3
Продолжительность : 1 ч. 42 м.
Вид битрейта : Постоянный
Битрейт : 192 Кбит/сек
Каналы : 2 канала
Расположение каналов : Front: L R
Частота : 48,0 КГц
Битовая глубина : 16 бит
Метод сжатия : С потерями
Размер потока : 141 Мбайт (1%)
Заголовок : AVO ( Дохалов )
Язык : Russian
Default : Нет
Forced : Нет

Аудио #11
Идентификатор : 12
Формат : AC-3
Формат/Информация : Audio Coding 3
Расширение режима : CM (complete main)
Параметр Endianness формата : Big
Идентификатор кодека : A_AC3
Продолжительность : 1 ч. 42 м.
Вид битрейта : Постоянный
Битрейт : 448 Кбит/сек
Каналы : 6 каналов
Расположение каналов : Front: L C R, Side: L R, LFE
Частота : 48,0 КГц
Битовая глубина : 16 бит
Метод сжатия : С потерями
Размер потока : 330 Мбайт (3%)
Заголовок : AVO ( Яроцкий )
Язык : Russian
Default : Нет
Forced : Нет

Аудио #12
Идентификатор : 13
Формат : AC-3
Формат/Информация : Audio Coding 3
Расширение режима : CM (complete main)
Параметр Endianness формата : Big
Идентификатор кодека : A_AC3
Продолжительность : 1 ч. 42 м.
Вид битрейта : Постоянный
Битрейт : 192 Кбит/сек
Каналы : 2 канала
Расположение каналов : Front: L R
Частота : 48,0 КГц
Битовая глубина : 16 бит
Метод сжатия : С потерями
Размер потока : 141 Мбайт (1%)
Заголовок : VO
Язык : Russian
Default : Нет
Forced : Нет

Аудио #13
Идентификатор : 14
Формат : AC-3
Формат/Информация : Audio Coding 3
Расширение режима : CM (complete main)
Параметр Endianness формата : Big
Идентификатор кодека : A_AC3
Продолжительность : 1 ч. 42 м.
Вид битрейта : Постоянный
Битрейт : 640 Кбит/сек
Каналы : 6 каналов
Расположение каналов : Front: L C R, Side: L R, LFE
Частота : 48,0 КГц
Битовая глубина : 16 бит
Метод сжатия : С потерями
Размер потока : 471 Мбайт (4%)
Язык : English
Default : Нет
Forced : Нет

Текст #1
Идентификатор : 15
Формат : UTF-8
Идентификатор кодека : S_TEXT/UTF8
Идентификатор кодека/Информация : UTF-8 Plain Text
Язык : Russian
Default : Нет
Forced : Нет

Текст #2
Идентификатор : 16
Формат : UTF-8
Идентификатор кодека : S_TEXT/UTF8
Идентификатор кодека/Информация : UTF-8 Plain Text
Заголовок : ненормативная лексика
Язык : Russian
Default : Нет
Forced : Нет

Текст #3
Идентификатор : 17
Формат : UTF-8
Идентификатор кодека : S_TEXT/UTF8
Идентификатор кодека/Информация : UTF-8 Plain Text
Язык : English
Default : Нет
Forced : Нет

Текст #4
Идентификатор : 18
Формат : UTF-8
Идентификатор кодека : S_TEXT/UTF8
Идентификатор кодека/Информация : UTF-8 Plain Text
Заголовок : SDH
Язык : English
Default : Нет
Forced : Нет

Меню
00:00:00.000 : en:Chapter 01
00:02:51.838 : en:Chapter 02
00:09:17.056 : en:Chapter 03
00:14:30.286 : en:Chapter 04
00:22:11.621 : en:Chapter 05
00:29:30.101 : en:Chapter 06
00:46:25.741 : en:Chapter 07
00:52:24.933 : en:Chapter 08
01:02:05.722 : en:Chapter 09
01:15:37.366 : en:Chapter 10
01:23:45.520 : en:Chapter 11
01:36:35.790 : en:Chapter 12
01:38:53.344 : en:Chapter 13
Полицейский из Беверли-Хиллз 3 / Beverly Hills Cop III (1994) BDRip 720p от KORSAR | D, P, P2, A | Remastered
Полицейский из Беверли-Хиллз 3
Beverly Hills Cop III
«He's back!»


Страна: США
Жанр: боевик, триллер, комедия, криминал
Год выпуска: 1994
Продолжительность: 01:44:12
Перевод: Профессиональный (полное дублирование), Профессиональный (многоголосый, закадровый), Профессиональный (двухголосый, закадровый), Авторский
Субтитры:русские, английские.


Режиссер: Джон Лэндис / John Landis


В ролях: Эдди Мёрфи(Det. Axel Foley), Джадж Райнхолд(Det. Sgt. William «Billy» Rosewood), Гектор Элизондо(Jon Flint), Тереза Рэндл(Janice), Джон Тенни(Levine), Джои Траволта(Giolito), Юджин Колльер(Leppert), Джимми Ортега(Rondell), Усон Илам(Pederson), Рэй Лайкинс(Nixon), Тим Гилберт(McKee), Рик Эйвери(Cline)


Описание: После перерыва в семь лет полицейский из Детройта Аксель Фоули снова вынужден побывать у своих друзей в Беверли-Хиллз. Его приводят туда поиски убийцы любимого шефа.








Качество: BDRip 720p
Контейнер: MKV

Видео: AVC, 1280x720 (16:9), 10000 kbps, 23,976 fps, 0,453 bpp
Аудио №01: русский / AC3 / 5.1 / 48 kHz / 640 kbps / MVO ( Киномания )
Аудио №02: русский / AC3 / 2.0 / 48 kHz / 192 kbps / Дубляж
Аудио №03: русский / AC3 / 5.1 / 48 kHz / 448 kbps / MVO ( R5 )
Аудио №04: русский / AC3 / 5.1 / 48 kHz / 384 kbps / MVO
Аудио №05: русский / AC3 / 2.0 / 48 kHz / 192 kbps / MVO ( CTC )
Аудио №06: русский / AC3 / 2.0 / 48 kHz / 192 kbps / MVO ( Премьер )
Аудио №07: русский / AC3 / 2.0 / 48 kHz / 192 kbps / DVO ( НТВ+ )
Аудио №08: русский / AC3 / 5.1 / 48 kHz / 640 kbps / AVO ( Гаврилов )
Аудио №09: русский / AC3 / 2.0 / 48 kHz / 192 kbps / AVO ( Пронин )
Аудио №10: русский / AC3 / 5.1 / 48 kHz / 448 kbps / AVO ( Яроцкий )
Аудио №11: английский / AC3 / 5.1 / 48 kHz / 640 kbps
Навигация по главам: есть


Media Info и Скриншоты



***********************************************************
x264 [info]: frame I:1350 Avg QP:16.19 size:192230
x264 [info]: frame P:32588 Avg QP:17.81 size: 82780
x264 [info]: frame B:115982 Avg QP:19.67 size: 41848
***********************************************************
Формат : Matroska
Версия формата : Version 2
Размер файла : 10,3 Гбайт
Продолжительность : 1 ч. 44 м.
Общий поток : 14,2 Мбит/сек
Название фильма : = Полицейский из Беверли Хиллз 3 / Beverly Hills Cop III (1994) BDRip 720p - KORSAR | Remastered =
Дата кодирования : UTC 2020-04-07 22:51:28
Программа кодирования : mkvmerge v5.8.0 ('No Sleep / Pillow') built on Sep 2 2012 15:37:04
Библиотека кодирования : libebml v1.2.3 + libmatroska v1.3.0
Attachment : Yes

Видео
Идентификатор : 1
Формат : AVC
Формат/Информация : Advanced Video Codec
Профиль формата : [email protected]
Параметр CABAC формата : Да
Параметр ReFrames формата : 9 кадров
Идентификатор кодека : V_MPEG4/ISO/AVC
Продолжительность : 1 ч. 44 м.
Битрейт : 10000 Кбит/сек
Ширина : 1280 пикселей
Высота : 720 пикселей
Соотношение сторон : 16:9
Режим частоты кадров : Постоянный
Частота кадров : 23,976 кадра/сек
Цветовое пространство : YUV
Субдискретизация насыщенности : 4:2:0
Битовая глубина : 8 бит
Тип развёртки : Прогрессивная
Бит/(Пиксели*Кадры) : 0.453
Размер потока : 7,07 Гбайт (69%)
Заголовок : Полицейский из Беверли Хиллз 3 / Beverly Hills Cop III (1994) BDRip 720p - KORSAR | Remastered
Библиотека кодирования : x264 core 158 r2984 3759fcb
Настройки программы : cabac=1 / ref=9 / deblock=1:-3:-3 / analyse=0x3:0x113 / me=umh / subme=11 / psy=1 / psy_rd=1.02:0.12 / mixed_ref=1 / me_range=48 / chroma_me=1 / trellis=2 / 8x8dct=1 / cqm=0 / deadzone=21,11 / fast_pskip=0 / chroma_qp_offset=-3 / threads=12 / lookahead_threads=3 / sliced_threads=0 / nr=0 / decimate=0 / interlaced=0 / bluray_compat=0 / constrained_intra=0 / bframes=10 / b_pyramid=2 / b_adapt=2 / b_bias=0 / direct=3 / weightb=1 / open_gop=0 / weightp=2 / keyint=240 / keyint_min=23 / scenecut=40 / intra_refresh=0 / rc_lookahead=60 / rc=2pass / mbtree=0 / bitrate=10000 / ratetol=1.0 / qcomp=0.68 / qpmin=0 / qpmax=69 / qpstep=4 / cplxblur=20.0 / qblur=0.5 / vbv_maxrate=50000 / vbv_bufsize=62500 / nal_hrd=none / filler=0 / ip_ratio=1.30 / pb_ratio=1.30 / aq=3:0.80
Язык : English
Default : Да
Forced : Нет
Основные цвета : BT.709
Характеристики трансфера : BT.709
Коэффициенты матрицы : BT.709

Аудио #1
Идентификатор : 2
Формат : AC-3
Формат/Информация : Audio Coding 3
Расширение режима : CM (complete main)
Параметр Endianness формата : Big
Идентификатор кодека : A_AC3
Продолжительность : 1 ч. 44 м.
Вид битрейта : Постоянный
Битрейт : 640 Кбит/сек
Каналы : 6 каналов
Расположение каналов : Front: L C R, Side: L R, LFE
Частота : 48,0 КГц
Битовая глубина : 16 бит
Метод сжатия : С потерями
Размер потока : 477 Мбайт (5%)
Заголовок : MVO ( Киномания )
Язык : Russian
Default : Да
Forced : Нет

Аудио #2
Идентификатор : 3
Формат : AC-3
Формат/Информация : Audio Coding 3
Расширение режима : CM (complete main)
Параметр Endianness формата : Big
Идентификатор кодека : A_AC3
Продолжительность : 1 ч. 44 м.
Вид битрейта : Постоянный
Битрейт : 192 Кбит/сек
Каналы : 2 канала
Расположение каналов : Front: L R
Частота : 48,0 КГц
Битовая глубина : 16 бит
Метод сжатия : С потерями
Размер потока : 143 Мбайт (1%)
Заголовок : Дубляж
Язык : Russian
Default : Нет
Forced : Нет

Аудио #3
Идентификатор : 4
Формат : AC-3
Формат/Информация : Audio Coding 3
Расширение режима : CM (complete main)
Параметр Endianness формата : Big
Идентификатор кодека : A_AC3
Продолжительность : 1 ч. 44 м.
Вид битрейта : Постоянный
Битрейт : 448 Кбит/сек
Каналы : 6 каналов
Расположение каналов : Front: L C R, Side: L R, LFE
Частота : 48,0 КГц
Битовая глубина : 16 бит
Метод сжатия : С потерями
Размер потока : 334 Мбайт (3%)
Заголовок : MVO ( R5 )
Язык : Russian
Default : Нет
Forced : Нет

Аудио #4
Идентификатор : 5
Формат : AC-3
Формат/Информация : Audio Coding 3
Расширение режима : CM (complete main)
Параметр Endianness формата : Big
Идентификатор кодека : A_AC3
Продолжительность : 1 ч. 44 м.
Вид битрейта : Постоянный
Битрейт : 384 Кбит/сек
Каналы : 6 каналов
Расположение каналов : Front: L C R, Side: L R, LFE
Частота : 48,0 КГц
Битовая глубина : 16 бит
Метод сжатия : С потерями
Размер потока : 286 Мбайт (3%)
Заголовок : MVO
Язык : Russian
Default : Нет
Forced : Нет

Аудио #5
Идентификатор : 6
Формат : AC-3
Формат/Информация : Audio Coding 3
Расширение режима : CM (complete main)
Параметр Endianness формата : Big
Идентификатор кодека : A_AC3
Продолжительность : 1 ч. 44 м.
Вид битрейта : Постоянный
Битрейт : 192 Кбит/сек
Каналы : 2 канала
Расположение каналов : Front: L R
Частота : 48,0 КГц
Битовая глубина : 16 бит
Метод сжатия : С потерями
Размер потока : 143 Мбайт (1%)
Заголовок : MVO ( CTC )
Язык : Russian
Default : Нет
Forced : Нет

Аудио #6
Идентификатор : 7
Формат : AC-3
Формат/Информация : Audio Coding 3
Расширение режима : CM (complete main)
Параметр Endianness формата : Big
Идентификатор кодека : A_AC3
Продолжительность : 1 ч. 44 м.
Вид битрейта : Постоянный
Битрейт : 192 Кбит/сек
Каналы : 2 канала
Расположение каналов : Front: L R
Частота : 48,0 КГц
Битовая глубина : 16 бит
Метод сжатия : С потерями
Размер потока : 143 Мбайт (1%)
Заголовок : MVO ( Премьер )
Язык : Russian
Default : Нет
Forced : Нет

Аудио #7
Идентификатор : 8
Формат : AC-3
Формат/Информация : Audio Coding 3
Расширение режима : CM (complete main)
Параметр Endianness формата : Big
Идентификатор кодека : A_AC3
Продолжительность : 1 ч. 44 м.
Вид битрейта : Постоянный
Битрейт : 192 Кбит/сек
Каналы : 2 канала
Расположение каналов : Front: L R
Частота : 48,0 КГц
Битовая глубина : 16 бит
Метод сжатия : С потерями
Размер потока : 143 Мбайт (1%)
Заголовок : DVO ( НТВ+ )
Язык : Russian
Default : Нет
Forced : Нет

Аудио #8
Идентификатор : 9
Формат : AC-3
Формат/Информация : Audio Coding 3
Расширение режима : CM (complete main)
Параметр Endianness формата : Big
Идентификатор кодека : A_AC3
Продолжительность : 1 ч. 44 м.
Вид битрейта : Постоянный
Битрейт : 640 Кбит/сек
Каналы : 6 каналов
Расположение каналов : Front: L C R, Side: L R, LFE
Частота : 48,0 КГц
Битовая глубина : 16 бит
Метод сжатия : С потерями
Размер потока : 477 Мбайт (5%)
Заголовок : AVO ( Гаврилов )
Язык : Russian
Default : Нет
Forced : Нет

Аудио #9
Идентификатор : 10
Формат : AC-3
Формат/Информация : Audio Coding 3
Расширение режима : CM (complete main)
Параметр Endianness формата : Big
Идентификатор кодека : A_AC3
Продолжительность : 1 ч. 44 м.
Вид битрейта : Постоянный
Битрейт : 192 Кбит/сек
Каналы : 2 канала
Расположение каналов : Front: L R
Частота : 48,0 КГц
Битовая глубина : 16 бит
Метод сжатия : С потерями
Размер потока : 143 Мбайт (1%)
Заголовок : AVO ( Пронин )
Язык : Russian
Default : Нет
Forced : Нет

Аудио #10
Идентификатор : 11
Формат : AC-3
Формат/Информация : Audio Coding 3
Расширение режима : CM (complete main)
Параметр Endianness формата : Big
Идентификатор кодека : A_AC3
Продолжительность : 1 ч. 44 м.
Вид битрейта : Постоянный
Битрейт : 448 Кбит/сек
Каналы : 6 каналов
Расположение каналов : Front: L C R, Side: L R, LFE
Частота : 48,0 КГц
Битовая глубина : 16 бит
Метод сжатия : С потерями
Размер потока : 334 Мбайт (3%)
Заголовок : AVO ( Яроцкий )
Язык : Russian
Default : Нет
Forced : Нет

Аудио #11
Идентификатор : 12
Формат : AC-3
Формат/Информация : Audio Coding 3
Расширение режима : CM (complete main)
Параметр Endianness формата : Big
Идентификатор кодека : A_AC3
Продолжительность : 1 ч. 44 м.
Вид битрейта : Постоянный
Битрейт : 640 Кбит/сек
Каналы : 6 каналов
Расположение каналов : Front: L C R, Side: L R, LFE
Частота : 48,0 КГц
Битовая глубина : 16 бит
Метод сжатия : С потерями
Размер потока : 477 Мбайт (5%)
Язык : English
Default : Нет
Forced : Нет

Текст #1
Идентификатор : 13
Формат : UTF-8
Идентификатор кодека : S_TEXT/UTF8
Идентификатор кодека/Информация : UTF-8 Plain Text
Default : Нет
Forced : Нет

Текст #2
Идентификатор : 14
Формат : UTF-8
Идентификатор кодека : S_TEXT/UTF8
Идентификатор кодека/Информация : UTF-8 Plain Text
Язык : Russian
Default : Нет
Forced : Нет

Текст #3
Идентификатор : 15
Формат : UTF-8
Идентификатор кодека : S_TEXT/UTF8
Идентификатор кодека/Информация : UTF-8 Plain Text
Язык : English
Default : Нет
Forced : Нет

Текст #4
Идентификатор : 16
Формат : UTF-8
Идентификатор кодека : S_TEXT/UTF8
Идентификатор кодека/Информация : UTF-8 Plain Text
Заголовок : SDH
Язык : English
Default : Нет
Forced : Нет

Меню
00:00:00.000 : en:Chapter 01
00:09:34.782 : en:Chapter 02
00:15:58.624 : en:Chapter 03
00:20:57.965 : en:Chapter 04
00:26:57.365 : en:Chapter 05
00:37:37.755 : en:Chapter 06
00:40:06.153 : en:Chapter 07
00:46:26.742 : en:Chapter 08
00:53:20.155 : en:Chapter 09
00:56:22.170 : en:Chapter 10
01:03:24.008 : en:Chapter 11
01:10:29.892 : en:Chapter 12
01:19:19.421 : en:Chapter 13
01:37:21.836 : en:Chapter 14
 

Вложения

  • 167,4 KB Просмотры: 0
    Личеров 0
    Сидеров 0
    Файлов 3
    Объем 33,2 GB

Привет!

Мы группа людей которые решили помочь другим в решении их проблем, а так же пользователям с поиском самых свежих и качественных инфопродуктов. За 4 с небольшим месяца мы создали этот форум на который заходят ежедневно тысячи человек и посещаемость постоянно растёт. Мы создали панель лицензирования для защиты PHP скриптов от воровства и SEO панель для мониторинга наших сайтов и выбора верной стратегии их развития. Мы надеемся что то что мы создали пригодится Вам и возможно Вы поможете нам развиваться и совершенствоваться вместе с Вами.

Статистика форума

Темы
406.640
Сообщения
465.116
Пользователи
84.573
Новый пользователь
sobolsm

Приложения форума для iOS и Android


У ркн там нет власти ;)
Приватные разговоры
Помощь Пользователи
    Вы не присоединились ни к одной комнате.