За последнюю неделю опубликовано 51 новых материалов.
Инструкция новичку Путеводитель по форуму Прокси для Telegram Показать подсказки , это бомба!

Скачать Полицейская история / Ging chat goo si / Police story (1985) BDRemux 1080p от MediaClub | P, P2, A | Remastered бесплатно через торрент

  • Поучаствуй (в качестве покупателя) в любых пяти совместных покупках (кроме завершённых и "Моментальных") и получи группу "Новичок" навсегда -> ссылка на раздел
  • Получай до 480 рублей за каждого приглашенного пользователя!
    представляем Вам очередное расширение партнерской программы, подробности описаны тут -> ссылка
  • 90% материалов доступно к скачиванию после простой регистрации!
    Если же ты хочешь скачивать материалы без требования оставлять отзывы то получи группу "Новичок", 10 способов повышения описаны тут -> ссылка
  • К сожалению количество битых ссылок растет и мы уже не можем их оперативно восстанавливать поэтому просим помощи у каждого нашего пользователя.
    С сегодняшнего дня, за каждую восстановленную ссылку мы заплатим Вам.
    Подробнее тут -> ссылка
  • Перенесем твои заслуги с другого ресурса!
    Мы понимаем как сложно прокачивать аккаунты на форумах, вроде раскачал аккаунт, а тут появляется ресурс в 100 раз круче но тоже с системой прокачки и снова качать аккаунт...
    Предлагаем вам перенести Ваши заслуги на другом подобном ресурсе к нам.
    Подробности описаны тут -> ссылка
  • Вы можете получать по 2.5% с каждой покупки и продажи на маркете! Подробности в теме Партнёрская программа
Если Вы не хотите скачивать, Вы всегда можетепосмотретьонлайн, просто нажмите кнопку ниже :

Открыть плеер

Torrent_Bot

Торрент-Бот
Бот форума
4 Окт 2016
91
164
20
Информация о фильме
Название: Полицейская история
Оригинальное название: Ging chat goo si / Police story
Год выхода: 1985
Жанр: Боевик, триллер, комедия, криминал
Режиссер: Джеки Чан
В ролях: Джеки Чан, Бриджит Лин, Мэгги Чун, Квок-Хун Лам, Билл Тун, Юен Чор, Чарли Чо, Чи-Вин Лау, Хак-Он Фунг, Хин Йинг Кэм, Марс, По Тай, Кен Тон, Фэт Ван, Фанг Ву, Мани Ло, Сю-Тинь Лэй, Пол Вонг, Бен Лам, Винни Ю, Юн-Кин Чо, Чи Фай Чан, Минг-Ван Чан, Пол Чанг, Чэнь Чихва, Чунг Ва, Чэнь Чуань, Кларенс Форд, Лианг Чианг, Дэни Ху, Бенни Лай, Роки Лаи, Фу-Вай Лам, Лау Нга Лаи, Тан Лау, Лау Чун Фанг, Крис Ли

О фильме:
В результате удачно проведенной облавы в руки полиции попадает босс наркомафии Чи. Одному из полицейских, Кевину, принимавшему непосредственное участие в аресте, поручают охрану секретарши преступника, которая проходит по делу в качестве главного свидетеля. Но в день суда она исчезает. Только разыскав девушку и арестовав Чи, Кевин сможет снять с себя подозрение в соучастии…





Страна: Гонконг
Студия: Golden Harvest Company Ltd., Paragon Films Ltd., Toho-Towa
Продолжительность: 01:40:31
Перевод: Профессиональный многоголосый, Профессиональный двухголосый, авторский

Файл
Кодек: H.264
Качество: BDRemux 1080p
Видео: MPEG-4 AVC, [email protected], 8 bits, 29.9 Mбит/с, 1920x1080, 23.976 кадр/с
Звук:
Русский (AC3, 6 ch, 448 Кбит/с) / Профессиональный многоголосый (Рен ТВ)
Русский (AC3, 2 ch, 224 Кбит/с) / Профессиональный многоголосый (Хлопушка)
Русский (AC3, 2 ch, 224 Кбит/с) / Профессиональный двухголосый (НТВ)
Русский (AC3, 6 ch, 448 Кбит/с) / Авторский (А.Гаврилов)
Русский (AC3, 2 ch, 192 Кбит/с) / Авторский (В.Сонькин)
Китайский (DTS-HD MA, 6 ch, 4188 Кбит/с)
Английский (DTS-HD MA, 6 ch, 3947 Кбит/с)
Субтитры: Русские, английские

Семпл

MI
General
Unique ID : 150815881270812662223833062514415849068 (0x71761509EF9B830731F633718D4F4E6C)
Complete name : D:uTorrentPolice.Story.1985.REMASTERED.BDRemux.1080p.MediaClub.mkv
Format : Matroska
Format version : Version 4 / Version 2
File size : 27.8 GiB
Duration : 1 h 40 min
Overall bit rate mode : Variable
Overall bit rate : 39.6 Mb/s
Encoded date : UTC 2018-09-03 08:44:37
Writing application : mkvmerge v25.0.0 ('Prog Noir') 64-bit
Writing library : libebml v1.3.6 + libmatroska v1.4.9
Cover : Yes
Attachments : cover.jpg

Video
ID : 1
Format : AVC
Format/Info : Advanced Video Codec
Format profile : [email protected]
Format settings : CABAC / 3 Ref Frames
Format settings, CABAC : Yes
Format settings, RefFrames : 3 frames
Codec ID : V_MPEG4/ISO/AVC
Duration : 1 h 40 min
Bit rate mode : Variable
Bit rate : 29.9 Mb/s
Maximum bit rate : 35.0 Mb/s
Width : 1 920 pixels
Height : 1 080 pixels
Display aspect ratio : 16:9
Frame rate mode : Constant
Frame rate : 23.976 (24000/1001) FPS
Color space : YUV
Chroma subsampling : 4:2:0
Bit depth : 8 bits
Scan type : Progressive
Bits/(Pixel*Frame) : 0.602
Stream size : 21.0 GiB (76%)
Title : BDRemux.1080p by Silverok
Default : Yes
Forced : No
Color range : Limited
Color primaries : BT.709
Transfer characteristics : BT.709
Matrix coefficients : BT.709

Audio #1
ID : 2
Format : AC-3
Format/Info : Audio Coding 3
Codec ID : A_AC3
Duration : 1 h 39 min
Bit rate mode : Constant
Bit rate : 448 kb/s
Channel(s) : 6 channels
Channel positions : Front: L C R, Side: L R, LFE
Sampling rate : 48.0 kHz
Frame rate : 31.250 FPS (1536 SPF)
Bit depth : 16 bits
Compression mode : Lossy
Stream size : 320 MiB (1%)
Title : Профессиональный многоголосый (Рен ТВ)
Language : Russian
Service kind : Complete Main
Default : Yes
Forced : No

Audio #2
ID : 3
Format : AC-3
Format/Info : Audio Coding 3
Codec ID : A_AC3
Duration : 1 h 39 min
Bit rate mode : Constant
Bit rate : 224 kb/s
Channel(s) : 2 channels
Channel positions : Front: L R
Sampling rate : 48.0 kHz
Frame rate : 31.250 FPS (1536 SPF)
Bit depth : 16 bits
Compression mode : Lossy
Stream size : 160 MiB (1%)
Title : Профессиональный многоголосый (Хлопушка)
Language : Russian
Service kind : Complete Main
Default : No
Forced : No

Audio #3
ID : 4
Format : AC-3
Format/Info : Audio Coding 3
Codec ID : A_AC3
Duration : 1 h 39 min
Bit rate mode : Constant
Bit rate : 224 kb/s
Channel(s) : 2 channels
Channel positions : Front: L R
Sampling rate : 48.0 kHz
Frame rate : 31.250 FPS (1536 SPF)
Bit depth : 16 bits
Compression mode : Lossy
Stream size : 160 MiB (1%)
Title : Профессиональный двухголосый (НТВ)
Language : Russian
Service kind : Complete Main
Default : No
Forced : No

Audio #4
ID : 5
Format : AC-3
Format/Info : Audio Coding 3
Codec ID : A_AC3
Duration : 1 h 40 min
Bit rate mode : Constant
Bit rate : 448 kb/s
Channel(s) : 6 channels
Channel positions : Front: L C R, Side: L R, LFE
Sampling rate : 48.0 kHz
Frame rate : 31.250 FPS (1536 SPF)
Bit depth : 16 bits
Compression mode : Lossy
Stream size : 321 MiB (1%)
Title : Авторский (А.Гаврилов)
Language : Russian
Service kind : Complete Main
Default : No
Forced : No

Audio #5
ID : 6
Format : AC-3
Format/Info : Audio Coding 3
Codec ID : A_AC3
Duration : 1 h 39 min
Bit rate mode : Constant
Bit rate : 192 kb/s
Channel(s) : 2 channels
Channel positions : Front: L R
Sampling rate : 48.0 kHz
Frame rate : 31.250 FPS (1536 SPF)
Bit depth : 16 bits
Compression mode : Lossy
Stream size : 137 MiB (0%)
Title : Авторский (В.Сонькин)
Language : Russian
Service kind : Complete Main
Default : No
Forced : No

Audio #6
ID : 7
Format : DTS
Format/Info : Digital Theater Systems
Format profile : MA / Core
Codec ID : A_DTS
Duration : 1 h 40 min
Bit rate mode : Variable / Constant
Bit rate : 4 188 kb/s / 768 kb/s
Channel(s) : 6 channels
Channel positions : Front: L C R, Side: L R, LFE
Sampling rate : 48.0 kHz
Frame rate : 93.750 FPS (512 SPF)
Bit depth : 24 bits
Compression mode : Lossless / Lossy
Stream size : 2.94 GiB (11%)
Language : Chinese
Default : No
Forced : No

Audio #7
ID : 8
Format : DTS
Format/Info : Digital Theater Systems
Format profile : MA / Core
Codec ID : A_DTS
Duration : 1 h 40 min
Bit rate mode : Variable / Constant
Bit rate : 3 947 kb/s / 768 kb/s
Channel(s) : 6 channels
Channel positions : Front: L C R, Side: L R, LFE
Sampling rate : 48.0 kHz
Frame rate : 93.750 FPS (512 SPF)
Bit depth : 24 bits
Compression mode : Lossless / Lossy
Stream size : 2.77 GiB (10%)
Language : English
Default : No
Forced : No

Text #1
ID : 9
Format : UTF-8
Codec ID : S_TEXT/UTF8
Codec ID/Info : UTF-8 Plain Text
Duration : 1 h 35 min
Bit rate : 81 b/s
Count of elements : 970
Stream size : 57.0 KiB (0%)
Title : Full
Language : Russian
Default : Yes
Forced : No

Text #2
ID : 10
Format : UTF-8
Codec ID : S_TEXT/UTF8
Codec ID/Info : UTF-8 Plain Text
Duration : 1 h 35 min
Bit rate : 46 b/s
Count of elements : 1451
Stream size : 32.6 KiB (0%)
Title : Full
Language : English
Default : No
Forced : No

Menu
00:00:00.000 : en:Chapter 01
00:06:07.408 : en:Chapter 02
00:12:16.861 : en:Chapter 03
00:17:16.285 : en:Chapter 04
00:25:52.092 : en:Chapter 05
00:29:32.645 : en:Chapter 06
00:35:25.540 : en:Chapter 07
00:40:32.680 : en:Chapter 08
00:45:32.271 : en:Chapter 09
00:50:04.459 : en:Chapter 10
01:00:01.556 : en:Chapter 11
01:04:53.764 : en:Chapter 12
01:10:38.943 : en:Chapter 13
01:16:09.231 : en:Chapter 14
01:19:35.145 : en:Chapter 15
01:25:14.359 : en:Chapter 16
01:34:10.478 : en:Chapter 17
01:37:46.819 : en:Chapter 18
Скриншоты

Релиз от: | Silverok
 

Вложения

  • 70,4 KB Просмотры: 1
    Личеров 0
    Сидеров 0
    Файлов 1
    Объем 27,8 GB

Привет!

Мы группа людей которые решили помочь другим в решении их проблем, а так же пользователям с поиском самых свежих и качественных инфопродуктов. За 4 с небольшим месяца мы создали этот форум на который заходят ежедневно тысячи человек и посещаемость постоянно растёт. Мы создали панель лицензирования для защиты PHP скриптов от воровства и SEO панель для мониторинга наших сайтов и выбора верной стратегии их развития. Мы надеемся что то что мы создали пригодится Вам и возможно Вы поможете нам развиваться и совершенствоваться вместе с Вами.

Статистика форума

Темы
410.572
Сообщения
469.128
Пользователи
86.230
Новый пользователь
loraia

Приложения форума для iOS и Android


У ркн там нет власти ;)
Приватные разговоры
Помощь Пользователи
    Вы не присоединились ни к одной комнате.