За последнюю неделю опубликовано 62 новых материалов.
Инструкция новичку Путеводитель по форуму Прокси для Telegram Показать подсказки , это бомба!

Скачать Поле чудес / Field of Dreams (1989) DVDRip-AVC | P | Fullscreen бесплатно через торрент

  • Поучаствуй (в качестве покупателя) в любых пяти совместных покупках (кроме завершённых и "Моментальных") и получи группу "Новичок" навсегда -> ссылка на раздел
  • Получай до 480 рублей за каждого приглашенного пользователя!
    представляем Вам очередное расширение партнерской программы, подробности описаны тут -> ссылка
  • 90% материалов доступно к скачиванию после простой регистрации!
    Если же ты хочешь скачивать материалы без требования оставлять отзывы то получи группу "Новичок", 10 способов повышения описаны тут -> ссылка
  • К сожалению количество битых ссылок растет и мы уже не можем их оперативно восстанавливать поэтому просим помощи у каждого нашего пользователя.
    С сегодняшнего дня, за каждую восстановленную ссылку мы заплатим Вам.
    Подробнее тут -> ссылка
  • Перенесем твои заслуги с другого ресурса!
    Мы понимаем как сложно прокачивать аккаунты на форумах, вроде раскачал аккаунт, а тут появляется ресурс в 100 раз круче но тоже с системой прокачки и снова качать аккаунт...
    Предлагаем вам перенести Ваши заслуги на другом подобном ресурсе к нам.
    Подробности описаны тут -> ссылка
  • Вы можете получать по 2.5% с каждой покупки и продажи на маркете! Подробности в теме Партнёрская программа
Если Вы не хотите скачивать, Вы всегда можетепосмотретьонлайн, просто нажмите кнопку ниже :

Открыть плеер

Torrent_Bot

Торрент-Бот
Бот форума
4 Окт 2016
92
160
20



Название: Поле чудес
Оригинальное название: Field of Dreams
Год выхода: 1999
Жанр: фэнтези, драма, семейный, спорт
Режиссер: Фил Олден Робинсон
В ролях: Кевин Костнер, Рэй Лиотта, Берт Ланкастер, Джеймс Эрл Джонс, Эми Мэдиган, Габи Хоффманн, Тимоти Басфилд, Фрэнк Уэйли, Дуайр Браун, Джеймс Энделин

О фильме:
Фермер из Айовы Рей Кинселла однажды услышал голос, который посоветовал ему построить бейсбольное поле на месте кукурузы. Кому-то это и показалось бы странным, но не Рею. Ведь его покойный отец когда-то был просто помешан на бейсболе. И вот поле построено, и на нём появляется призрачная команда легендарных игроков. Рей не столько напуган, сколько озадачен. Чтобы понять смысл удивительных событий, он начинает вести расследование…



Страна: США
Продолжительность: 01:45:38
Перевод: Профессиональный (многоголосый закадровый)

Формат: MKV
Качество: DVDRip-AVC
Видео: AVC/H.264, 720x480(4:3)@720x540, 23.976 fps, ~2004 Kbps
Аудио 1: AC3, 2 ch, 192 kbps - Русский (MVO ОРТ)
Аудио 2: AC3, 2 ch, 192 kbps - Русский (MVO Blu-Ray CEE)
Аудио 3: AC3, 6 ch, 448 kbps - Английский
Субтитры: русские, английские

MediaInfo
General
Unique ID : 138398780403908788882957889755999551738 (0x681EA2B30DF93C2334A8604FAF5EC0FA)
Complete name : D:uTorrentUploadПоле мечты (1989) Full Screen.mkv
Format : Matroska
Format version : Version 4
File size : 2.09 GiB
Duration : 1 h 45 min
Overall bit rate : 2 839 kb/s
Encoded date : UTC 2020-01-21 13:51:58
Writing application : mkvmerge v42.0.0 ('Overtime') 64-bit
Writing library : libebml v1.3.10 + libmatroska v1.5.2

Video
ID : 1
Format : AVC
Format/Info : Advanced Video Codec
Format profile : [email protected]
Format settings : CABAC / 10 Ref Frames
Format settings, CABAC : Yes
Format settings, Reference frames : 10 frames
Codec ID : V_MPEG4/ISO/AVC
Duration : 1 h 45 min
Bit rate : 2 004 kb/s
Width : 720 pixels
Height : 480 pixels
Display aspect ratio : 4:3
Frame rate mode : Constant
Frame rate : 23.976 (24000/1001) FPS
Color space : YUV
Chroma subsampling : 4:2:0
Bit depth : 8 bits
Scan type : Progressive
Bits/(Pixel*Frame) : 0.242
Stream size : 1.48 GiB (71%)
Writing library : x264 core 157 r2969 d4099dd
Encoding settings : cabac=1 / ref=10 / deblock=1:-3:-3 / analyse=0x3:0x113 / me=umh / subme=9 / psy=1 / psy_rd=1.00:0.00 / mixed_ref=1 / me_range=48 / chroma_me=1 / trellis=2 / 8x8dct=1 / cqm=0 / deadzone=21,11 / fast_pskip=0 / chroma_qp_offset=-2 / threads=3 / lookahead_threads=1 / sliced_threads=0 / nr=0 / decimate=1 / interlaced=0 / bluray_compat=0 / constrained_intra=0 / bframes=10 / b_pyramid=2 / b_adapt=2 / b_bias=0 / direct=1 / weightb=1 / open_gop=0 / weightp=2 / keyint=240 / keyint_min=23 / scenecut=40 / intra_refresh=0 / rc_lookahead=50 / rc=crf / mbtree=1 / crf=18.4 / qcomp=0.60 / qpmin=0 / qpmax=69 / qpstep=4 / vbv_maxrate=50000 / vbv_bufsize=62500 / crf_max=0.0 / nal_hrd=none / filler=0 / ip_ratio=1.40 / aq=3:0.80
Default : Yes
Forced : No

Audio #1
ID : 2
Format : AC-3
Format/Info : Audio Coding 3
Commercial name : Dolby Digital
Codec ID : A_AC3
Duration : 1 h 45 min
Bit rate mode : Constant
Bit rate : 192 kb/s
Channel(s) : 2 channels
Channel layout : L R
Sampling rate : 48.0 kHz
Frame rate : 31.250 FPS (1536 SPF)
Bit depth : 16 bits
Compression mode : Lossy
Stream size : 145 MiB (7%)
Title : MVO (ОРТ)
Language : Russian
Service kind : Complete Main
Default : Yes
Forced : No

Audio #2
ID : 3
Format : AC-3
Format/Info : Audio Coding 3
Commercial name : Dolby Digital
Codec ID : A_AC3
Duration : 1 h 45 min
Bit rate mode : Constant
Bit rate : 192 kb/s
Channel(s) : 2 channels
Channel layout : L R
Sampling rate : 48.0 kHz
Frame rate : 31.250 FPS (1536 SPF)
Bit depth : 16 bits
Compression mode : Lossy
Stream size : 145 MiB (7%)
Title : MVO (Blu-Ray CEE)
Language : Russian
Service kind : Complete Main
Default : No
Forced : No

Audio #3
ID : 4
Format : AC-3
Format/Info : Audio Coding 3
Commercial name : Dolby Digital
Codec ID : A_AC3
Duration : 1 h 45 min
Bit rate mode : Constant
Bit rate : 448 kb/s
Channel(s) : 6 channels
Channel layout : L R C LFE Ls Rs
Sampling rate : 48.0 kHz
Frame rate : 31.250 FPS (1536 SPF)
Bit depth : 16 bits
Compression mode : Lossy
Stream size : 338 MiB (16%)
Title : Original
Language : English
Service kind : Complete Main
Default : No
Forced : No

Text #1
ID : 5
Format : UTF-8
Codec ID : S_TEXT/UTF8
Codec ID/Info : UTF-8 Plain Text
Duration : 1 h 39 min
Bit rate : 100 b/s
Count of elements : 1148
Stream size : 73.3 KiB (0%)
Language : Russian
Default : No
Forced : No

Text #2
ID : 6
Format : UTF-8
Codec ID : S_TEXT/UTF8
Codec ID/Info : UTF-8 Plain Text
Duration : 1 h 38 min
Bit rate : 58 b/s
Count of elements : 1355
Stream size : 42.3 KiB (0%)
Language : English
Default : No
Forced : No

Menu
00:00:00.000 : en:Chapter 01
00:03:52.699 : en:Chapter 02
00:08:58.120 : en:Chapter 03
00:11:32.058 : en:Chapter 04
00:13:50.696 : en:Chapter 05
00:15:26.292 : en:Chapter 06
00:17:20.072 : en:Chapter 07
00:21:39.298 : en:Chapter 08
00:25:01.666 : en:Chapter 09
00:27:08.793 : en:Chapter 10
00:29:10.415 : en:Chapter 11
00:33:48.559 : en:Chapter 12
00:35:36.667 : en:Chapter 13
00:39:32.069 : en:Chapter 14
00:42:34.251 : en:Chapter 15
00:46:15.973 : en:Chapter 16
00:52:27.928 : en:Chapter 17
00:54:05.308 : en:Chapter 18
00:58:02.045 : en:Chapter 19
00:59:10.613 : en:Chapter 20
01:03:17.360 : en:Chapter 21
01:05:54.517 : en:Chapter 22
01:09:38.741 : en:Chapter 23
01:11:04.827 : en:Chapter 24
01:12:31.413 : en:Chapter 25
01:15:25.554 : en:Chapter 26
01:17:49.698 : en:Chapter 27
01:20:40.569 : en:Chapter 28
01:22:30.512 : en:Chapter 29
01:26:27.248 : en:Chapter 30
01:28:09.851 : en:Chapter 31
01:30:03.131 : en:Chapter 32
01:34:19.387 : en:Chapter 33
01:37:33.380 : en:Chapter 34
Сравнения:


Скриншоты

 

Вложения

  • 11,4 KB Просмотры: 0
    Личеров 0
    Сидеров 0
    Файлов 1
    Объем 2,1 GB

Привет!

Мы группа людей которые решили помочь другим в решении их проблем, а так же пользователям с поиском самых свежих и качественных инфопродуктов. За 4 с небольшим месяца мы создали этот форум на который заходят ежедневно тысячи человек и посещаемость постоянно растёт. Мы создали панель лицензирования для защиты PHP скриптов от воровства и SEO панель для мониторинга наших сайтов и выбора верной стратегии их развития. Мы надеемся что то что мы создали пригодится Вам и возможно Вы поможете нам развиваться и совершенствоваться вместе с Вами.

Статистика форума

Темы
406.657
Сообщения
465.113
Пользователи
84.667
Новый пользователь
Red1237

Приложения форума для iOS и Android


У ркн там нет власти ;)
Приватные разговоры
Помощь Пользователи
    Вы не присоединились ни к одной комнате.