За последнюю неделю опубликовано 47 новых материалов.
Инструкция новичку Путеводитель по форуму Прокси для Telegram Показать подсказки , это бомба!

Скачать Поклонница (2012) HDTV 1080i от MediaClub бесплатно через торрент

  • Поучаствуй (в качестве покупателя) в любых пяти совместных покупках (кроме завершённых и "Моментальных") и получи группу "Новичок" навсегда -> ссылка на раздел
  • Получай до 480 рублей за каждого приглашенного пользователя!
    представляем Вам очередное расширение партнерской программы, подробности описаны тут -> ссылка
  • 90% материалов доступно к скачиванию после простой регистрации!
    Если же ты хочешь скачивать материалы без требования оставлять отзывы то получи группу "Новичок", 10 способов повышения описаны тут -> ссылка
  • К сожалению количество битых ссылок растет и мы уже не можем их оперативно восстанавливать поэтому просим помощи у каждого нашего пользователя.
    С сегодняшнего дня, за каждую восстановленную ссылку мы заплатим Вам.
    Подробнее тут -> ссылка
  • Перенесем твои заслуги с другого ресурса!
    Мы понимаем как сложно прокачивать аккаунты на форумах, вроде раскачал аккаунт, а тут появляется ресурс в 100 раз круче но тоже с системой прокачки и снова качать аккаунт...
    Предлагаем вам перенести Ваши заслуги на другом подобном ресурсе к нам.
    Подробности описаны тут -> ссылка
  • Вы можете получать по 2.5% с каждой покупки и продажи на маркете! Подробности в теме Партнёрская программа
Если Вы не хотите скачивать, Вы всегда можетепосмотретьонлайн, просто нажмите кнопку ниже :

Открыть плеер

Torrent_Bot

Торрент-Бот
Бот форума
4 Окт 2016
90
166
20
Информация о фильме
Название: Поклонница
Год выхода: 2012
Жанр: Драма, мелодрама
Режиссер: Виталий Мельников
В ролях: Кирилл Пирогов, Светлана Иванова, Олег Андреев, Иван Краско, Олег Табаков, Светлана Крючкова, Оксана Мысина, Дмитрий Лунев, Мария Жильченко, Родион Антонкин

О фильме:
Романтическая драма, рассказывающая об истории любви молодой писательницы Лидии Авиловой и Антона Павловича Чехова.В Петербурге Чехов знакомится с начинающей писательницей Лидией Авиловой. Между ними возникает взаимная симпатия, которая перерастает в глубокое чувство. Но Авилова – замужем, у нее двое детей, а Чехов неизлечимо болен..."В фильме мы рассказываем о грустной, тихой, никому неизвестной любви. Это совершенно чеховская история, в которой сам Антон Павлович оказался главным героем"...



Страна: Россия
Студия: Ленфильм
Продолжительность: 01:42:09
Перевод: Не требуется

Файл
Кодек: h.264
Качество: HDTV 1080i
Видео: MPEG-TS AVC, ~ 7846 Кбит/с, 1920x1080, 25.000 кадр/с
Звук:
Русский (AC3, 6 ch, 448 Кбит/с)
Русский (MP2, 2 ch, 192 Кбит/с)
Субтитры: Нет

Семпл

О релизе
Автор релиза - Silverok, первоисточник - Наш Кинороман HD
MI
General
ID : 1 (0x1)
Complete name : D:uTorrentPoklonnica.2012.HDTV.1080i.MediaClub.ts
Format : MPEG-TS
File size : 6.37 GiB
Duration : 1 h 42 min
Overall bit rate mode : Variable
Overall bit rate : 8 934 kb/s

Video
ID : 3551 (0xDDF)
Menu ID : 17015 (0x4277)
Format : AVC
Format/Info : Advanced Video Codec
Format profile : [email protected]
Format settings, CABAC : Yes
Format settings, ReFrames : 4 frames
Format settings, GOP : M=1, N=32
Codec ID : 27
Duration : 1 h 42 min
Bit rate : 7 846 kb/s
Width : 1 920 pixels
Height : 1 080 pixels
Display aspect ratio : 16:9
Frame rate : 25.000 FPS
Color space : YUV
Chroma subsampling : 4:2:0
Bit depth : 8 bits
Scan type : Interlaced
Scan type, store method : Separated fields
Scan order : Top Field First
Bits/(Pixel*Frame) : 0.151
Stream size : 5.60 GiB (88%)
Color range : Limited
Color primaries : BT.709
Transfer characteristics : BT.709
Matrix coefficients : BT.709

Audio #1
ID : 3552 (0xDE0)
Menu ID : 17015 (0x4277)
Format : AC-3
Format/Info : Audio Coding 3
Mode extension : CM (complete main)
Format settings, Endianness : Big
Codec ID : 6
Duration : 1 h 42 min
Bit rate mode : Constant
Bit rate : 448 kb/s
Channel(s) : 6 channels
Channel positions : Front: L C R, Side: L R, LFE
Sampling rate : 48.0 kHz
Frame rate : 31.250 FPS (1536 spf)
Compression mode : Lossy
Stream size : 327 MiB (5%)
Language : Russian

Audio #2
ID : 3553 (0xDE1)
Menu ID : 17015 (0x4277)
Format : MPEG Audio
Format version : Version 1
Format profile : Layer 2
Codec ID : 3
Duration : 1 h 42 min
Bit rate mode : Constant
Bit rate : 192 kb/s
Channel(s) : 2 channels
Sampling rate : 48.0 kHz
Compression mode : Lossy
Stream size : 140 MiB (2%)
Language : Russian
Скриншоты

Релиз от: | Silverok
 

Вложения

  • 17 KB Просмотры: 0
    Личеров 0
    Сидеров 0
    Файлов 1
    Объем 6,4 GB

Привет!

Мы группа людей которые решили помочь другим в решении их проблем, а так же пользователям с поиском самых свежих и качественных инфопродуктов. За 4 с небольшим месяца мы создали этот форум на который заходят ежедневно тысячи человек и посещаемость постоянно растёт. Мы создали панель лицензирования для защиты PHP скриптов от воровства и SEO панель для мониторинга наших сайтов и выбора верной стратегии их развития. Мы надеемся что то что мы создали пригодится Вам и возможно Вы поможете нам развиваться и совершенствоваться вместе с Вами.

Статистика форума

Темы
410.885
Сообщения
469.443
Пользователи
87.881
Новый пользователь
anplanunad

Приложения форума для iOS и Android


У ркн там нет власти ;)
Приватные разговоры
Помощь Пользователи
    Вы не присоединились ни к одной комнате.