За последнюю неделю опубликовано 52 новых материалов.
Инструкция новичку Путеводитель по форуму Прокси для Telegram Показать подсказки , это бомба!

Скачать Пока свадьба не разлучит нас / Hasta que la boda nos separe / The Wedding Unplanner (2020) HDRip-AVC от MediaBit | iTunes бесплатно через торрент

  • Поучаствуй (в качестве покупателя) в любых пяти совместных покупках (кроме завершённых и "Моментальных") и получи группу "Новичок" навсегда -> ссылка на раздел
  • Получай до 480 рублей за каждого приглашенного пользователя!
    представляем Вам очередное расширение партнерской программы, подробности описаны тут -> ссылка
  • 90% материалов доступно к скачиванию после простой регистрации!
    Если же ты хочешь скачивать материалы без требования оставлять отзывы то получи группу "Новичок", 10 способов повышения описаны тут -> ссылка
  • К сожалению количество битых ссылок растет и мы уже не можем их оперативно восстанавливать поэтому просим помощи у каждого нашего пользователя.
    С сегодняшнего дня, за каждую восстановленную ссылку мы заплатим Вам.
    Подробнее тут -> ссылка
  • Перенесем твои заслуги с другого ресурса!
    Мы понимаем как сложно прокачивать аккаунты на форумах, вроде раскачал аккаунт, а тут появляется ресурс в 100 раз круче но тоже с системой прокачки и снова качать аккаунт...
    Предлагаем вам перенести Ваши заслуги на другом подобном ресурсе к нам.
    Подробности описаны тут -> ссылка
  • Вы можете получать по 2.5% с каждой покупки и продажи на маркете! Подробности в теме Партнёрская программа
Если Вы не хотите скачивать, Вы всегда можетепосмотретьонлайн, просто нажмите кнопку ниже :

Открыть плеер

Torrent_Bot

Торрент-Бот
Бот форума
4 Окт 2016
93
160
20





Пока свадьба не разлучит нас / Hasta que la boda nos separe / The Wedding Unplanner




Информация о фильме:

Название: Пока свадьба не разлучит нас
Оригинальное название: Hasta que la boda nos separe / The Wedding Unplanner
Год выхода: 2020
Жанр: Мелодрама, комедия
Режиссер: Дани де ла Орден

В ролях: Белен Куэста, Алехандро Гарсия, Сильвия Алонсо, Антонио Дечент, Мариам Эрнандес, Грасия Олайо, Сальва Реина, Рикардо Кастелла, Жорже Понсе, Эрнесто Севилья и др.

Описание: Марину все устраивает: любимая работа, яркие вечеринки с друзьями, отношения без обязательств. Все меняется, когда она встречает мужчину своей мечты. Но есть всего одна проблема — он собирается жениться на ее лучшей подруге…



Страна: Испания
Студия: Capella Film
Продолжительность: 01:50:34
Перевод: Профессиональный (многоголосый, закадровый) - iTunes



Информация о файле:
Кодек: AVC
Формат: MKV
Качество: HDRip-AVC
Видео: MPEG-4 AVC, 720x302 (2.40:1), 853 kbps, 24.000 fps, 0.163
Аудио RU: AAC, 2 ch, 48 kHz, 96 kbps
Субтитры: Русские (форс.)
Навигация по главам: Есть



Трейлер

Скриншоты
MediaInfo
General
Unique ID : 182254267992271149775489662474221077460 (0x891CE52D42AA83D753E247A48DA543D4)
Complete name : D:uTorrentPokaSvadbaNeRazluchitNasHDRip-AVC_wolf1245 & MediaBit.mkv
Format : Matroska
Format version : Version 4
File size : 752 MiB
Duration : 1 h 50 min
Overall bit rate : 950 kb/s
Movie name : Hasta que la boda nos separe / The Wedding Unplanner (2020) HDRip-AVC_wolf1245 & MediaBit
Encoded date : UTC 2020-08-31 09:49:12
Writing application : mkvmerge v49.0.0 ('Sick Of Losing Soulmates') 64-bit
Writing library : libebml v1.4.0 + libmatroska v1.6.1
Cover : Yes
Attachments : Covers.png

Video
ID : 1
Format : AVC
Format/Info : Advanced Video Codec
Format profile : [email protected]
Format settings : CABAC / 11 Ref Frames
Format settings, CABAC : Yes
Format settings, Reference frames : 11 frames
Codec ID : V_MPEG4/ISO/AVC
Duration : 1 h 50 min
Bit rate : 853 kb/s
Width : 720 pixels
Height : 302 pixels
Display aspect ratio : 2.40:1
Frame rate mode : Constant
Frame rate : 24.000 FPS
Color space : YUV
Chroma subsampling : 4:2:0
Bit depth : 8 bits
Scan type : Progressive
Bits/(Pixel*Frame) : 0.163
Stream size : 674 MiB (90%)
Title : wolf1245 & MediaBit
Writing library : x264 core 157 r2958 57baac4
Encoding settings : cabac=1 / ref=11 / deblock=1:-3:-3 / analyse=0x3:0x133 / me=umh / subme=11 / psy=1 / psy_rd=1.00:0.15 / mixed_ref=1 / me_range=48 / chroma_me=1 / trellis=2 / 8x8dct=1 / cqm=0 / deadzone=21,11 / fast_pskip=0 / chroma_qp_offset=-3 / threads=10 / lookahead_threads=2 / sliced_threads=0 / nr=0 / decimate=0 / interlaced=0 / bluray_compat=0 / constrained_intra=0 / bframes=11 / b_pyramid=2 / b_adapt=2 / b_bias=8 / direct=3 / weightb=1 / open_gop=0 / weightp=2 / keyint=240 / keyint_min=24 / scenecut=40 / intra_refresh=0 / rc_lookahead=60 / rc=2pass / mbtree=0 / bitrate=853 / ratetol=1.0 / qcomp=0.60 / qpmin=0 / qpmax=69 / qpstep=4 / cplxblur=20.0 / qblur=0.5 / vbv_maxrate=50000 / vbv_bufsize=62500 / nal_hrd=none / filler=0 / ip_ratio=1.40 / pb_ratio=1.30 / aq=1:1.00
Language : Spanish
Default : Yes
Forced : No

Audio
ID : 2
Format : AAC LC SBR
Format/Info : Advanced Audio Codec Low Complexity with Spectral Band Replication
Commercial name : HE-AAC
Format settings : Implicit
Codec ID : A_AAC-2
Duration : 1 h 50 min
Bit rate : 96.0 kb/s
Channel(s) : 2 channels
Channel layout : L R
Sampling rate : 48.0 kHz
Frame rate : 23.438 FPS (2048 SPF)
Compression mode : Lossy
Stream size : 75.9 MiB (10%)
Title : MVO | iTunes
Language : Russian
Default : Yes
Forced : No

Text
ID : 3
Format : UTF-8
Codec ID : S_TEXT/UTF8
Codec ID/Info : UTF-8 Plain Text
Duration : 57 min 27 s
Bit rate : 2 b/s
Count of elements : 20
Stream size : 1.09 KiB (0%)
Title : RUS Forced
Language : Russian
Default : Yes
Forced : No

Menu
00:00:00.000 : :Chapter 1
00:08:12.291 : :Chapter 2
00:18:08.916 : :Chapter 3
00:28:28.291 : :Chapter 4
00:37:13.583 : :Chapter 5
00:46:38.416 : :Chapter 6
00:55:44.500 : :Chapter 7
01:05:45.583 : :Chapter 8
01:15:34.791 : :Chapter 9
01:25:18.291 : :Chapter 10
01:34:08.208 : :Chapter 11
01:42:23.125 : :Chapter 12

Релиз от: &
 

Вложения

  • 15,7 KB Просмотры: 0
    Личеров 0
    Сидеров 0
    Файлов 1
    Объем 751,6 MB

Привет!

Мы группа людей которые решили помочь другим в решении их проблем, а так же пользователям с поиском самых свежих и качественных инфопродуктов. За 4 с небольшим месяца мы создали этот форум на который заходят ежедневно тысячи человек и посещаемость постоянно растёт. Мы создали панель лицензирования для защиты PHP скриптов от воровства и SEO панель для мониторинга наших сайтов и выбора верной стратегии их развития. Мы надеемся что то что мы создали пригодится Вам и возможно Вы поможете нам развиваться и совершенствоваться вместе с Вами.

Статистика форума

Темы
406.648
Сообщения
465.113
Пользователи
84.625
Новый пользователь
kris_kelt

Приложения форума для iOS и Android


У ркн там нет власти ;)
Приватные разговоры
Помощь Пользователи
    Вы не присоединились ни к одной комнате.