За последнюю неделю опубликовано 28 новых материалов.
Инструкция новичку Путеводитель по форуму Прокси для Telegram Показать подсказки , это бомба!

Скачать Поймай меня, если сможешь / Catch Me If You Can (2002) BDRip-AVC | D бесплатно через торрент

  • Поучаствуй (в качестве покупателя) в любых пяти совместных покупках (кроме завершённых и "Моментальных") и получи группу "Новичок" навсегда -> ссылка на раздел
  • Получай до 480 рублей за каждого приглашенного пользователя!
    представляем Вам очередное расширение партнерской программы, подробности описаны тут -> ссылка
  • 90% материалов доступно к скачиванию после простой регистрации!
    Если же ты хочешь скачивать материалы без требования оставлять отзывы то получи группу "Новичок", 10 способов повышения описаны тут -> ссылка
  • К сожалению количество битых ссылок растет и мы уже не можем их оперативно восстанавливать поэтому просим помощи у каждого нашего пользователя.
    С сегодняшнего дня, за каждую восстановленную ссылку мы заплатим Вам.
    Подробнее тут -> ссылка
  • Перенесем твои заслуги с другого ресурса!
    Мы понимаем как сложно прокачивать аккаунты на форумах, вроде раскачал аккаунт, а тут появляется ресурс в 100 раз круче но тоже с системой прокачки и снова качать аккаунт...
    Предлагаем вам перенести Ваши заслуги на другом подобном ресурсе к нам.
    Подробности описаны тут -> ссылка
  • Вы можете получать по 2.5% с каждой покупки и продажи на маркете! Подробности в теме Партнёрская программа
Если Вы не хотите скачивать, Вы всегда можетепосмотретьонлайн, просто нажмите кнопку ниже :

Открыть плеер

Torrent_Bot

Торрент-Бот
Бот форума
4 Окт 2016
93
160
20

«Правдивая история о реальном преступнике»
Информация о фильме
Название: Поймай меня, если сможешь
Оригинальное название: Catch Me If You Can
Год выхода: 2002
Жанр: драма, комедия, криминал, биография
Режиссер: Стивен Спилберг
В ролях: Леонардо ДиКаприо, Том Хэнкс, Кристофер Уокен, Мартин Шин, Натали Бэй, Эми Адамс, Джеймс Бролин, Брайан Хау, Фрэнк Джон Хьюз, Стив Исти

О фильме: Фрэнк Эбегнейл успел поработать врачом, адвокатом и пилотом на пассажирской авиалинии — и все это до достижения полного совершеннолетия в 21 год. Мастер в обмане и жульничестве, он также обладал искусством подделки документов, что в конечном счете принесло ему миллионы долларов, которые он получил по фальшивым чекам.
Агент ФБР Карл Хэнрэтти отдал бы все, чтобы схватить Фрэнка и привлечь к ответственности за свои деяния, но Фрэнк всегда опережает его на шаг, заставляя продолжать погоню.

Страна: США, Канада
Продолжительность: 02:20:43
Перевод: Профессиональный (полное дублирование)

Файл
Кодек: x264
Качество: BDRip-AVC [Blu-ray disc-1080p]
Видео: 720x390 (1.85:1), 23.976, 670 kbps avg, 0.100 bit/pixel
Аудио: 48 kHz, 2 ch, 72 kbps avg
Релиз группа




MediaInfo ▼
Общее
Уникальный идентификатор : 95910968854107844776241211649909249611 (0x4827C7DB5FBF492DDCEC62634E26D64B)
Полное имя : D:RipMuviПоймай_меня_если_сможешь.(2002).BDRip-AVC.mkv
Формат : Matroska
Версия формата : Version 4
Размер файла : 749 Мбайт
Продолжительность : 2 ч. 20 м.
Общий поток : 744 Кбит/сек
Название фильма : -=rip by Sergei91=- (TrackerPMR.com)
Дата кодирования : UTC 2020-05-28 14:25:48
Программа кодирования : mkvmerge v46.0.0 ('No Deeper Escape') 64-bit
Библиотека кодирования : libebml v1.3.10 + libmatroska v1.5.2
Обложка : Yes
Attachments : cover.jpeg

Видео
Идентификатор : 1
Формат : AVC
Формат/Информация : Advanced Video Codec
Профиль формата : [email protected]
Настройки формата : CABAC / 9 Ref Frames
Параметр CABAC формата : Да
Параметр RefFrames формата : 9 кадров
Идентификатор кодека : V_MPEG4/ISO/AVC
Продолжительность : 2 ч. 20 м.
Битрейт : 670 Кбит/сек
Ширина : 720 пикселей
Высота : 390 пикселей
Соотношение сторон : 1,85:1
Режим частоты кадров : Постоянный
Частота кадров : 23,976 (24000/1001) кадра/сек
Цветовое пространство : YUV
Субдискретизация насыщенности : 4:2:0
Битовая глубина : 8 бит
Тип развёртки : Прогрессивная
Бит/(Пиксели*Кадры) : 0.100
Размер потока : 674 Мбайт (90%)
Заголовок : Catch Me If You Can
Библиотека кодирования : x264 core 148 r2638 7599210
Настройки программы : cabac=1 / ref=9 / deblock=1:-2:-2 / analyse=0x3:0x113 / me=umh / subme=10 / psy=1 / psy_rd=1.00:0.15 / mixed_ref=1 / me_range=32 / chroma_me=1 / trellis=2 / 8x8dct=1 / cqm=0 / deadzone=21,11 / fast_pskip=1 / chroma_qp_offset=-3 / threads=2 / lookahead_threads=1 / sliced_threads=0 / nr=0 / decimate=0 / interlaced=0 / bluray_compat=0 / constrained_intra=0 / bframes=8 / b_pyramid=2 / b_adapt=2 / b_bias=0 / direct=3 / weightb=1 / open_gop=0 / weightp=2 / keyint=240 / keyint_min=23 / scenecut=40 / intra_refresh=0 / rc_lookahead=40 / rc=2pass / mbtree=0 / bitrate=670 / ratetol=1.0 / qcomp=0.60 / qpmin=0 / qpmax=69 / qpstep=4 / cplxblur=20.0 / qblur=0.5 / vbv_maxrate=14000 / vbv_bufsize=14000 / nal_hrd=none / filler=0 / ip_ratio=1.40 / pb_ratio=1.30 / aq=1:1.00
Язык : English
Default : Да
Forced : Нет

Аудио
Идентификатор : 2
Формат : AAC LC SBR
Формат/Информация : Advanced Audio Codec Low Complexity with Spectral Band Replication
Коммерческое название : HE-AAC
Настройки формата : Explicit
Идентификатор кодека : A_AAC-2
Продолжительность : 2 ч. 20 м.
Битрейт : 72,0 Кбит/сек
Каналы : 2 канала
Channel layout : L R
Частота : 48,0 КГц
Частота кадров : 23,438 кадра/сек (2048 SPF)
Метод сжатия : С потерями
Задержка видео : 31 мс.
Размер потока : 72,5 Мбайт (10%)
Заголовок : Дубляж (72,0 Кбит/сек)
Язык : Russian
Default : Да
Forced : Нет
Log x264▼
raw [info]: 720x390p 1:1 @ 24000/1001 fps (cfr)
x264 [info]: using SAR=1/1
x264 [info]: using cpu capabilities: MMX2 SSE2Fast SSSE3 SSE4.2 AVX FMA3 AVX2 LZCNT BMI2
x264 [info]: profile High, level 4.1

x264 [info]: frame I:1312 Avg QP:18.78 size: 29540
x264 [info]: frame P:43692 Avg QP:23.03 size: 7886
x264 [info]: frame B:157444 Avg QP:25.37 size: 2057
x264 [info]: consecutive B-frames: 1.8% 2.1% 7.6% 22.8% 17.8% 36.9% 6.1% 2.4% 2.6%
x264 [info]: mb I I16..4: 8.9% 66.7% 24.4%
x264 [info]: mb P I16..4: 1.3% 6.3% 1.4% P16..4: 43.8% 21.8% 11.4% 0.0% 0.0% skip:14.1%
x264 [info]: mb B I16..4: 0.1% 0.4% 0.1% B16..8: 40.5% 7.1% 1.7% direct: 2.4% skip:47.8% L0:42.9% L1:49.3% BI: 7.8%
x264 [info]: 8x8 transform intra:70.1% inter:64.8%
x264 [info]: direct mvs spatial:96.3% temporal:3.7%
x264 [info]: coded y,uvDC,uvAC intra: 77.2% 69.0% 39.1% inter: 12.4% 8.6% 3.1%
x264 [info]: i16 v,h,dc,p: 30% 24% 7% 39%
x264 [info]: i8 v,h,dc,ddl,ddr,vr,hd,vl,hu: 18% 8% 7% 9% 13% 13% 12% 11% 10%
x264 [info]: i4 v,h,dc,ddl,ddr,vr,hd,vl,hu: 18% 10% 4% 8% 13% 14% 12% 11% 11%
x264 [info]: i8c dc,h,v,p: 34% 26% 24% 16%
x264 [info]: Weighted P-Frames: Y:3.3% UV:0.9%
x264 [info]: ref P L0: 48.0% 12.0% 17.1% 5.7% 5.4% 3.7% 3.6% 1.9% 2.2% 0.3% 0.0%
x264 [info]: ref B L0: 74.2% 11.3% 5.7% 3.0% 2.3% 1.9% 1.1% 0.4%
x264 [info]: ref B L1: 92.6% 7.4%
x264 [info]: kb/s:670.05

x264 [total]: encoded 202448 frames, 23.09 fps, 670.05 kb/s
 

Вложения

  • 15,6 KB Просмотры: 0
    Личеров 0
    Сидеров 0
    Файлов 1
    Объем 748,8 MB

Привет!

Мы группа людей которые решили помочь другим в решении их проблем, а так же пользователям с поиском самых свежих и качественных инфопродуктов. За 4 с небольшим месяца мы создали этот форум на который заходят ежедневно тысячи человек и посещаемость постоянно растёт. Мы создали панель лицензирования для защиты PHP скриптов от воровства и SEO панель для мониторинга наших сайтов и выбора верной стратегии их развития. Мы надеемся что то что мы создали пригодится Вам и возможно Вы поможете нам развиваться и совершенствоваться вместе с Вами.

Статистика форума

Темы
406.613
Сообщения
465.071
Пользователи
84.482
Новый пользователь
IrinaVego

Приложения форума для iOS и Android


У ркн там нет власти ;)
Приватные разговоры
Помощь Пользователи
    Вы не присоединились ни к одной комнате.