За последнюю неделю опубликовано 23 новых материалов.
Инструкция новичку Путеводитель по форуму Прокси для Telegram Показать подсказки , это бомба!

Скачать Погружение / Submergence (2017) BDRip 1080p от OlLanDGroup | Rus Transfer | Лицензия бесплатно через торрент

  • Поучаствуй (в качестве покупателя) в любых пяти совместных покупках (кроме завершённых и "Моментальных") и получи группу "Новичок" навсегда -> ссылка на раздел
  • Получай до 480 рублей за каждого приглашенного пользователя!
    представляем Вам очередное расширение партнерской программы, подробности описаны тут -> ссылка
  • 90% материалов доступно к скачиванию после простой регистрации!
    Если же ты хочешь скачивать материалы без требования оставлять отзывы то получи группу "Новичок", 10 способов повышения описаны тут -> ссылка
  • К сожалению количество битых ссылок растет и мы уже не можем их оперативно восстанавливать поэтому просим помощи у каждого нашего пользователя.
    С сегодняшнего дня, за каждую восстановленную ссылку мы заплатим Вам.
    Подробнее тут -> ссылка
  • Перенесем твои заслуги с другого ресурса!
    Мы понимаем как сложно прокачивать аккаунты на форумах, вроде раскачал аккаунт, а тут появляется ресурс в 100 раз круче но тоже с системой прокачки и снова качать аккаунт...
    Предлагаем вам перенести Ваши заслуги на другом подобном ресурсе к нам.
    Подробности описаны тут -> ссылка
  • Вы можете получать по 2.5% с каждой покупки и продажи на маркете! Подробности в теме Партнёрская программа
Если Вы не хотите скачивать, Вы всегда можетепосмотретьонлайн, просто нажмите кнопку ниже :

Открыть плеер

Torrent_Bot

Торрент-Бот
Бот форума
4 Окт 2016
122
116
20


Информация о фильме


Название: Погружение
Оригинальное название: Submergence
Год выпуска: 2017
Жанр:Драма, триллер, мелодрама
Выпущено: Германия, Франция, Испания, США, Backup Media, Green Hummingbird Entertainment, Lila 9th Productions
Режиссер: Вим Вендерс
В ролях: Джеймс МакЭвой, Алисия Викандер, Александр Сиддиг, Селин Джонс, Реда Катеб, Мохамед Хакимшади, Клементин Баэрт, Адама Барри, Жюльен Буаниш, Лоик Корбери


О фильме: Джеймс и Даниэль — молодая влюбленная пара, которая не представляет себе жизни друг без друга. Каждый из них выбрал для себя профессию не из легких, и они не раз рисковали собственной жизнью. Однажды разведчик Джеймс отправляется на новое секретное задание, после чего попадает в плен к сомалийским боевикам. В это время Даниэль проводит очередные исследования опаснейших глубин океана, погружаясь на батискафе в темную бездну. Они оказываются на грани жизни и смерти, и лишь воспоминания о совместном счастье греют им душу и дают новые силы. Смогут ли герои пережить это страшное время и снова быть вместе, или их судьба уже предрешена?





Качество: BDRip (1080p)
Видео: MPEG-4 AVC, 15406 Кбит/с, 1920x1040, 24 Кадр/c
Аудио: Русский (AC3, 6 ch, 640 Кбит/с), (DTS, 6 ch, 1509 Кбит/с)
Размер: 13.65 ГБ
Продолжительность: 01:51:17
Перевод: Дублированный
Субтитры: Русские


Озвучивание - (Лицензия)
Сохранены оригинальные чаптеры как на Blu-Ray.
За исходник, большое спасибо BLUEBIRD


x264
x264 [info]: frame I:956 Avg QP:15.80 size:255172
x264 [info]: frame P:32932 Avg QP:17.75 size:130814
x264 [info]: frame B:126363 Avg QP:19.48 size: 65719
x264 [info]: consecutive B-frames: 1.7% 1.8% 7.4% 15.4% 16.3% 42.9% 6.9% 2.1% 2.0% 2.5% 1.0%
x264 [info]: mb I I16..4: 11.4% 75.0% 13.7%
x264 [info]: mb P I16..4: 2.2% 30.4% 1.6% P16..4: 25.7% 29.1% 7.7% 1.0% 0.0% skip: 2.3%
x264 [info]: mb B I16..4: 0.5% 4.1% 0.2% B16..8: 39.1% 23.2% 3.7% direct:13.5% skip:15.7% L0:43.4% L1:42.5% BI:14.1%
x264 [info]: 8x8 transform intra:87.5% inter:52.7%
x264 [info]: direct mvs spatial:98.1% temporal:1.9%
x264 [info]: coded y,uvDC,uvAC intra: 93.6% 92.0% 79.6% inter: 50.2% 55.6% 25.4%
x264 [info]: i16 v,h,dc,p: 39% 6% 16% 38%
x264 [info]: i8 v,h,dc,ddl,ddr,vr,hd,vl,hu: 6% 7% 11% 11% 14% 12% 13% 12% 14%
x264 [info]: i4 v,h,dc,ddl,ddr,vr,hd,vl,hu: 11% 8% 6% 9% 15% 13% 14% 10% 15%
x264 [info]: i8c dc,h,v,p: 54% 17% 14% 16%
x264 [info]: Weighted P-Frames: Y:3.4% UV:1.8%
x264 [info]: ref P L0: 45.7% 8.4% 30.1% 13.9% 1.9% 0.0%
x264 [info]: ref B L0: 80.0% 16.3% 3.7%
x264 [info]: ref B L1: 88.3% 11.7%
x264 [info]: kb/s:15403.54
Инфо-файл
Общее
Уникальный идентификатор : 253304304849616751378859084296286784565 (0xBE90A2738550D7D682A7DBFFB9524C35)
Полное имя : D:ЗагрузкиSubmergence.2017.x264.BDRip.(1080p).OlLanDGroup.mkv
Формат : Matroska
Версия формата : Version 4 / Version 2
Размер файла : 13,6 Гбайт
Продолжительность : 1 ч. 51 м.
Общий поток : 17,6 Мбит/сек
Название фильма : Погружение.2017.Rip by: ollan
Дата кодирования : UTC 2019-11-24 08:12:31
Программа кодирования : mkvmerge v6.5.0 ('Isn't she lovely') built on Oct 20 2013 12:50:05
Библиотека кодирования : libebml v1.3.0 + libmatroska v1.4.1
Обложка : Yes
Attachments : Cover - Submergence.png

Видео
Идентификатор : 1
Формат : AVC
Формат/Информация : Advanced Video Codec
Профиль формата : High@L4.1
Настройки формата : CABAC / 4 Ref Frames
Параметр CABAC формата : Да
Параметр ReFrames формата : 4 кадра
Идентификатор кодека : V_MPEG4/ISO/AVC
Продолжительность : 1 ч. 51 м.
Битрейт : 15,4 Мбит/сек
Ширина : 1920 пикселей
Высота : 1040 пикселей
Соотношение сторон : 1,85:1
Режим частоты кадров : Постоянный
Частота кадров : 24,000 кадра/сек
Цветовое пространство : YUV
Субдискретизация насыщенности : 4:2:0
Битовая глубина : 8 бит
Тип развёртки : Прогрессивная
Бит/(Пиксели*Кадры) : 0.321
Размер потока : 11,7 Гбайт (86%)
Библиотека кодирования : x264 core 146 r2538 121396c
Настройки программы : cabac=1 / ref=4 / deblock=1:-2:-3 / analyse=0x3:0x133 / me=umh / subme=11 / psy=1 / psy_rd=0.90:0.05 / mixed_ref=1 / me_range=64 / chroma_me=1 / trellis=2 / 8x8dct=1 / cqm=0 / deadzone=21,11 / fast_pskip=0 / chroma_qp_offset=-3 / threads=12 / lookahead_threads=3 / sliced_threads=0 / nr=0 / decimate=0 / interlaced=0 / bluray_compat=0 / constrained_intra=0 / bframes=10 / b_pyramid=2 / b_adapt=2 / b_bias=0 / direct=3 / weightb=1 / open_gop=0 / weightp=2 / keyint=240 / keyint_min=23 / scenecut=40 / intra_refresh=0 / rc_lookahead=40 / rc=2pass / mbtree=0 / bitrate=15406 / ratetol=1.0 / qcomp=0.60 / qpmin=0 / qpmax=69 / qpstep=4 / cplxblur=20.0 / qblur=0.5 / vbv_maxrate=50000 / vbv_bufsize=62500 / nal_hrd=none / filler=0 / ip_ratio=1.40 / pb_ratio=1.30 / aq=1:1.00
Язык : English
Default : Да
Forced : Нет

Аудио #1
Идентификатор : 2
Формат : AC-3
Формат/Информация : Audio Coding 3
Идентификатор кодека : A_AC3
Продолжительность : 1 ч. 51 м.
Вид битрейта : Постоянный
Битрейт : 640 Кбит/сек
Каналы : 6 каналов
Расположение каналов : Front: L C R, Side: L R, LFE
Частота : 48,0 КГц
Частота кадров : 31,250 кадров/сек (1536 SPF)
Битовая глубина : 16 бит
Метод сжатия : С потерями
Размер потока : 509 Мбайт (4%)
Заголовок : Лицензия
Язык : Russian
Service kind : Complete Main
Default : Да
Forced : Нет

Аудио #2
Идентификатор : 3
Формат : DTS
Формат/Информация : Digital Theater Systems
Идентификатор кодека : A_DTS
Продолжительность : 1 ч. 51 м.
Вид битрейта : Постоянный
Битрейт : 1509 Кбит/сек
Каналы : 6 каналов
Расположение каналов : Front: L C R, Side: L R, LFE
Частота : 48,0 КГц
Частота кадров : 93,750 кадра/сек (512 SPF)
Битовая глубина : 24 бит
Метод сжатия : С потерями
Размер потока : 1,17 Гбайт (9%)
Заголовок : Лицензия
Язык : Russian
Default : Нет
Forced : Нет

Текст
Идентификатор : 4
Формат : UTF-8
Идентификатор кодека : S_TEXT/UTF8
Идентификатор кодека/Информация : UTF-8 Plain Text
Заголовок : Full
Язык : Russian
Default : Нет
Forced : Нет

Меню
00:00:00.000 : en:Chapter 01
00:02:27.291 : en:Chapter 02
00:14:44.375 : en:Chapter 03
00:28:23.125 : en:Chapter 04
00:42:53.583 : en:Chapter 05
00:58:10.791 : en:Chapter 06
01:13:29.166 : en:Chapter 07
01:25:38.916 : en:Chapter 08
01:37:21.791 : en:Chapter 09
Скриншоты


Релиз от: Rip by:
 

Вложения

  • 35,1 KB Просмотры: 0
    Личеров 0
    Сидеров 0
    Файлов 1
    Объем 13,6 GB

Привет!

Мы группа людей которые решили помочь другим в решении их проблем, а так же пользователям с поиском самых свежих и качественных инфопродуктов. За 4 с небольшим месяца мы создали этот форум на который заходят ежедневно тысячи человек и посещаемость постоянно растёт. Мы создали панель лицензирования для защиты PHP скриптов от воровства и SEO панель для мониторинга наших сайтов и выбора верной стратегии их развития. Мы надеемся что то что мы создали пригодится Вам и возможно Вы поможете нам развиваться и совершенствоваться вместе с Вами.

Статистика форума

Темы
385.054
Сообщения
430.355
Пользователи
62.967
Новый пользователь
Вика В

Приложения форума для iOS и Android


У ркн там нет власти ;)
Приватные разговоры
Помощь Пользователи
    Вы не присоединились ни к одной комнате.