За последнюю неделю опубликовано 63 новых материалов.
Инструкция новичку Путеводитель по форуму Прокси для Telegram Показать подсказки , это бомба!

Скачать Поездка в Америку / Coming to America (1988) BDRip-HEVC 1080p от HEVC-CLUB | P, P2, A бесплатно через торрент

  • Поучаствуй (в качестве покупателя) в любых пяти совместных покупках (кроме завершённых и "Моментальных") и получи группу "Новичок" навсегда -> ссылка на раздел
  • Получай до 480 рублей за каждого приглашенного пользователя!
    представляем Вам очередное расширение партнерской программы, подробности описаны тут -> ссылка
  • 90% материалов доступно к скачиванию после простой регистрации!
    Если же ты хочешь скачивать материалы без требования оставлять отзывы то получи группу "Новичок", 10 способов повышения описаны тут -> ссылка
  • К сожалению количество битых ссылок растет и мы уже не можем их оперативно восстанавливать поэтому просим помощи у каждого нашего пользователя.
    С сегодняшнего дня, за каждую восстановленную ссылку мы заплатим Вам.
    Подробнее тут -> ссылка
  • Перенесем твои заслуги с другого ресурса!
    Мы понимаем как сложно прокачивать аккаунты на форумах, вроде раскачал аккаунт, а тут появляется ресурс в 100 раз круче но тоже с системой прокачки и снова качать аккаунт...
    Предлагаем вам перенести Ваши заслуги на другом подобном ресурсе к нам.
    Подробности описаны тут -> ссылка
  • Вы можете получать по 2.5% с каждой покупки и продажи на маркете! Подробности в теме Партнёрская программа
Если Вы не хотите скачивать, Вы всегда можетепосмотретьонлайн, просто нажмите кнопку ниже :

Открыть плеер

Torrent_Bot

Торрент-Бот
Бот форума
4 Окт 2016
92
160
20



Год выхода: 1988
Страна / Студия: США / Paramount Pictures, Eddie Murphy Productions
Жанр:мелодрама, комедия
Продолжительность: 01:56:49
Перевод: Профессиональный (многоголосый, закадровый), профессиональный (двухголосый, закадровый), авторский (одноголосый, закадровый)

Режиссер: Джон Лэндис
В ролях: Эдди Мёрфи, Арсенио Холл, Джеймс Эрл Джонс, Джон Эймос, Мэдж Синклер, Шари Хэдли, Пол Бейтс, Эрик Ла Салль, Фрэнки Фэйзон, Ванесса Белл Кэллоуэй

Описание: Наследный принц африканского государства хочет сам найти себе жену и едет для этого в Америку. Там он представляется обычным человеком и поступает на работу в закусочную, так как его выбор пал на дочь хозяина.

Качество: BDRip 1080p
Видео: HEVC/H.265, 1920x1080, ~10,4 Мbps
Аудио 1: AC3, 6 ch, 448 Kbps - Русский, MVO (Юниверсал Пикчерс Рус)
Аудио 2: AC3, 6 ch, 448 Kbps - Русский, DVO (R5)
Аудио 3: AC3, 6 ch, 640 Kbps - Русский, AVO (Горчаков)
Аудио 4: AC3, 6 ch, 448 Kbps - Английский
Субтитры: Русские, английские



Релиз от: Мичман

Mediainfo
==============================
x265 [info]: frame I: Avg QP:18.41 kb/s
x265 [info]: frame P: Avg QP:19.92 kb/s
x265 [info]: frame B: Avg QP:21.85 kb/s
==============================
Общее
Уникальный идентификатор : 275591563827171645250687073319872196022 (0xCF550128310EAA5E8993A47371696DB6)
Полное имя : R:Coming To America (1988) BDRip-HEVC 1080p.mkv
Формат : Matroska
Версия формата : Version 4 / Version 2
Размер файла : 10,1 Гбайт
Продолжительность : 1 ч. 56 м.
Общий поток : 12,4 Мбит/сек
Название фильма : Coming To America (1988)
Дата кодирования : UTC 2020-07-24 04:57:23
Программа кодирования : mkvmerge v47.0.0 ('Black Flag') 64-bit
Библиотека кодирования : libebml v1.3.10 + libmatroska v1.5.2
Обложка : Yes
Attachments : cover

Видео
Идентификатор : 1
Формат : HEVC
Формат/Информация : High Efficiency Video Coding
Профиль формата : Main [email protected]@High
Идентификатор кодека : V_MPEGH/ISO/HEVC
Продолжительность : 1 ч. 56 м.
Битрейт : 10,4 Мбит/сек
Ширина : 1920 пикселей
Высота : 1080 пикселей
Соотношение сторон : 16:9
Режим частоты кадров : Постоянный
Частота кадров : 23,976 (24000/1001) кадра/сек
Цветовое пространство : YUV
Субдискретизация насыщенности : 4:2:0
Битовая глубина : 10 бит
Бит/(Пиксели*Кадры) : 0.210
Размер потока : 8,51 Гбайт (84%)
Библиотека кодирования : x265 3.3+1-g554c887ac:[Windows][MSVC 1924][64 bit] 10bit
Настройки программы : cpuid=1111039 / frame-threads=3 / numa-pools=12 / wpp / no-pmode / no-pme / no-psnr / no-ssim / log-level=2 / input-csp=1 / input-res=1920x1080 / interlace=0 / total-frames=161704 / level-idc=41 / high-tier=1 / uhd-bd=0 / ref=5 / no-allow-non-conformance / no-repeat-headers / annexb / no-aud / no-hrd / info / hash=0 / no-temporal-layers / open-gop / min-keyint=23 / keyint=240 / gop-lookahead=0 / bframes=8 / b-adapt=2 / b-pyramid / bframe-bias=0 / rc-lookahead=60 / lookahead-slices=4 / scenecut=40 / hist-scenecut=0 / radl=0 / no-splice / no-intra-refresh / ctu=32 / min-cu-size=8 / rect / amp / max-tu-size=32 / tu-inter-depth=4 / tu-intra-depth=4 / limit-tu=1 / rdoq-level=2 / dynamic-rd=0.00 / no-ssim-rd / signhide / no-tskip / nr-intra=0 / nr-inter=0 / no-constrained-intra / no-strong-intra-smoothing / max-merge=4 / limit-refs=2 / limit-modes / me=3 / subme=7 / merange=57 / temporal-mvp / no-frame-dup / no-hme / weightp / weightb / no-analyze-src-pics / deblock=-3:-3 / no-sao / no-sao-non-deblock / rd=6 / selective-sao=0 / no-early-skip / no-rskip / no-fast-intra / no-tskip-fast / no-cu-lossless / no-b-intra / no-splitrd-skip / rdpenalty=0 / psy-rd=2.00 / psy-rdoq=1.00 / no-rd-refine / no-lossless / cbqpoffs=0 / crqpoffs=0 / rc=crf / crf=20.0 / qcomp=0.65 / qpstep=4 / stats-write=0 / stats-read=0 / vbv-maxrate=50000 / vbv-bufsize=50000 / vbv-init=0.9 / crf-max=0.0 / crf-min=0.0 / ipratio=1.40 / pbratio=1.30 / aq-mode=1 / aq-strength=1.00 / no-cutree / zone-count=0 / no-strict-cbr / qg-size=32 / no-rc-grain / qpmax=69 / qpmin=0 / no-const-vbv / sar=1 / overscan=0 / videoformat=5 / range=0 / colorprim=1 / transfer=1 / colormatrix=1 / chromaloc=0 / display-window=0 / cll=0,0 / min-luma=0 / max-luma=1023 / log2-max-poc-lsb=8 / vui-timing-info / vui-hrd-info / slices=1 / no-opt-qp-pps / no-opt-ref-list-length-pps / no-multi-pass-opt-rps / scenecut-bias=0.05 / hist-threshold=0.01 / no-opt-cu-delta-qp / no-aq-motion / no-hdr10 / no-hdr10-opt / no-dhdr10-opt / no-idr-recovery-sei / analysis-reuse-level=0 / analysis-save-reuse-level=0 / analysis-load-reuse-level=0 / scale-factor=0 / refine-intra=0 / refine-inter=0 / refine-mv=1 / refine-ctu-distortion=0 / no-limit-sao / ctu-info=0 / no-lowpass-dct / refine-analysis-type=0 / copy-pic=1 / max-ausize-factor=1.0 / no-dynamic-refine / no-single-sei / no-hevc-aq / no-svt / no-field / qp-adaptation-range=1.00 / no-scenecut-aware-qpconformance-window-offsets / right=0 / bottom=0
Default : Да
Forced : Нет
Цветовой диапазон : Limited
Основные цвета : BT.709
Характеристики трансфера : BT.709
Коэффициенты матрицы : BT.709

Аудио #1
Идентификатор : 2
Формат : AC-3
Формат/Информация : Audio Coding 3
Идентификатор кодека : A_AC3
Продолжительность : 1 ч. 56 м.
Вид битрейта : Постоянный
Битрейт : 448 Кбит/сек
Каналы : 6 каналов
Расположение каналов : Front: L C R, Side: L R, LFE
Частота : 48,0 КГц
Частота кадров : 31,250 кадров/сек (1536 SPF)
Битовая глубина : 16 бит
Метод сжатия : С потерями
Размер потока : 374 Мбайт (4%)
Заголовок : Многоголосый, Юниверсал Пикчерс Рус
Язык : Russian
ServiceKind/Strin : Complete Main
Default : Да
Forced : Нет

Аудио #2
Идентификатор : 3
Формат : AC-3
Формат/Информация : Audio Coding 3
Идентификатор кодека : A_AC3
Продолжительность : 1 ч. 56 м.
Вид битрейта : Постоянный
Битрейт : 448 Кбит/сек
Каналы : 6 каналов
Расположение каналов : Front: L C R, Side: L R, LFE
Частота : 48,0 КГц
Частота кадров : 31,250 кадров/сек (1536 SPF)
Битовая глубина : 16 бит
Метод сжатия : С потерями
Размер потока : 374 Мбайт (4%)
Заголовок : Двухголосый, R5
Язык : Russian
ServiceKind/Strin : Complete Main
Default : Нет
Forced : Нет

Аудио #3
Идентификатор : 4
Формат : AC-3
Формат/Информация : Audio Coding 3
Идентификатор кодека : A_AC3
Продолжительность : 1 ч. 56 м.
Вид битрейта : Постоянный
Битрейт : 640 Кбит/сек
Каналы : 6 каналов
Расположение каналов : Front: L C R, Side: L R, LFE
Частота : 48,0 КГц
Частота кадров : 31,250 кадров/сек (1536 SPF)
Битовая глубина : 16 бит
Метод сжатия : С потерями
Размер потока : 535 Мбайт (5%)
Заголовок : Авторский, Василий Горчаков
Язык : Russian
ServiceKind/Strin : Complete Main
Default : Нет
Forced : Нет

Аудио #4
Идентификатор : 5
Формат : AC-3
Формат/Информация : Audio Coding 3
Идентификатор кодека : A_AC3
Продолжительность : 1 ч. 56 м.
Вид битрейта : Постоянный
Битрейт : 448 Кбит/сек
Каналы : 6 каналов
Расположение каналов : Front: L C R, Side: L R, LFE
Частота : 48,0 КГц
Частота кадров : 31,250 кадров/сек (1536 SPF)
Битовая глубина : 16 бит
Метод сжатия : С потерями
Размер потока : 374 Мбайт (4%)
Заголовок : Оригинал
Язык : English
ServiceKind/Strin : Complete Main
Default : Нет
Forced : Нет

Текст #1
Идентификатор : 6
Формат : UTF-8
Идентификатор кодека : S_TEXT/UTF8
Идентификатор кодека/Информация : UTF-8 Plain Text
Продолжительность : 1 ч. 49 м.
Битрейт : 65 бит/сек
ElementCount : 958
Размер потока : 52,5 Кбайт (0%)
Язык : Russian
Default : Нет
Forced : Нет

Текст #2
Идентификатор : 7
Формат : UTF-8
Идентификатор кодека : S_TEXT/UTF8
Идентификатор кодека/Информация : UTF-8 Plain Text
Продолжительность : 1 ч. 48 м.
Битрейт : 61 бит/сек
ElementCount : 1353
Размер потока : 48,7 Кбайт (0%)
Язык : English
Default : Нет
Forced : Нет

Меню
00:00:00.000 : en:Opening Credits
00:05:00.000 : en:Happy Birthday
00:10:00.000 : en:Trouble in Paradise
00:15:00.000 : en:Here Comes the Bride
00:20:00.000 : en:Royal Oats
00:25:00.000 : en:America
00:30:00.000 : en:Meeting the Locals
00:35:00.000 : en:Barber Shop Quartet
00:40:00.000 : en:In Search of a Queen
00:45:00.000 : en:Black Awareness Week
00:50:00.000 : en:Working with the Natives
00:55:00.000 : en:The Way to a Women's Heart
01:00:00.000 : en:Take Me Out to the Ball Game
01:05:00.000 : en:Mopping Up
01:10:00.000 : en:Engagement Party?
01:15:00.000 : en:Humble Abode
01:20:00.000 : en:To Be Loved...
01:25:00.000 : en:Riches to Rags
01:30:00.000 : en:A King in New York
01:35:00.000 : en:Hospitality
01:40:00.000 : en:The Truth
01:45:00.000 : en:Take a Chance
01:50:00.000 : en:Here Comes the Bride-Take 2
01:55:00.000 : en:End Credits
 

Вложения

  • 26,4 KB Просмотры: 0
    Личеров 0
    Сидеров 0
    Файлов 1
    Объем 10,1 GB

Привет!

Мы группа людей которые решили помочь другим в решении их проблем, а так же пользователям с поиском самых свежих и качественных инфопродуктов. За 4 с небольшим месяца мы создали этот форум на который заходят ежедневно тысячи человек и посещаемость постоянно растёт. Мы создали панель лицензирования для защиты PHP скриптов от воровства и SEO панель для мониторинга наших сайтов и выбора верной стратегии их развития. Мы надеемся что то что мы создали пригодится Вам и возможно Вы поможете нам развиваться и совершенствоваться вместе с Вами.

Статистика форума

Темы
406.658
Сообщения
465.103
Пользователи
84.692
Новый пользователь
Yuyuyuppp

Приложения форума для iOS и Android


У ркн там нет власти ;)
Приватные разговоры
Помощь Пользователи
    Вы не присоединились ни к одной комнате.