За последнюю неделю опубликовано 62 новых материалов.
Инструкция новичку Путеводитель по форуму Прокси для Telegram Показать подсказки , это бомба!

Скачать Поезд смерти / D-Railed (2018) WEB-DLRip-AVC | iTunes бесплатно через торрент

  • Поучаствуй (в качестве покупателя) в любых пяти совместных покупках (кроме завершённых и "Моментальных") и получи группу "Новичок" навсегда -> ссылка на раздел
  • Получай до 480 рублей за каждого приглашенного пользователя!
    представляем Вам очередное расширение партнерской программы, подробности описаны тут -> ссылка
  • 90% материалов доступно к скачиванию после простой регистрации!
    Если же ты хочешь скачивать материалы без требования оставлять отзывы то получи группу "Новичок", 10 способов повышения описаны тут -> ссылка
  • К сожалению количество битых ссылок растет и мы уже не можем их оперативно восстанавливать поэтому просим помощи у каждого нашего пользователя.
    С сегодняшнего дня, за каждую восстановленную ссылку мы заплатим Вам.
    Подробнее тут -> ссылка
  • Перенесем твои заслуги с другого ресурса!
    Мы понимаем как сложно прокачивать аккаунты на форумах, вроде раскачал аккаунт, а тут появляется ресурс в 100 раз круче но тоже с системой прокачки и снова качать аккаунт...
    Предлагаем вам перенести Ваши заслуги на другом подобном ресурсе к нам.
    Подробности описаны тут -> ссылка
  • Вы можете получать по 2.5% с каждой покупки и продажи на маркете! Подробности в теме Партнёрская программа
Если Вы не хотите скачивать, Вы всегда можетепосмотретьонлайн, просто нажмите кнопку ниже :

Открыть плеер

Torrent_Bot

Торрент-Бот
Бот форума
4 Окт 2016
92
160
20



Информация о фильме
Название: Поезд смерти
Оригинальное название: D-Railed
Год выхода: 2018
Жанр: ужасы, фантастика, боевик, триллер, детектив, приключения
Режиссер: Дэйл Фабригар
В ролях: Лэнс Хенриксен, Франк Ламерс, Тоня Кэй, Джек Беттс, Даниэль О'Рейли, Шаэ Смолик, Летисия ЛаБелль, Эверетт Уоллин, Грегг Кристи, Бри Маттсон

О фильме:
Женщина садится в поезд, который посреди ночи сходит с рельсов в озеро. Как и другие выжившие, она оказываются в ловушке среди затонувших обломков. Пассажиры обнаруживают, что нечто над поверхностью гораздо страшнее, чем они предполагали, и им придется бороться против смертоносного хищника, решившего убить их одного за другим.



Страна: США
Студия: Suzanne DeLaurentiis Productions
Продолжительность: 01:20:24
Перевод: Профессиональный (многоголосый) | iTunes
Субтитры: Английские (SDH)

Файл
Формат: Matroska
Качество: WEB-DLRip-AVC [WEB-DL 1080p (AMZN)]
Видео: 752x320 at 23.976 fps, x264, ~1197 kbps, 0.207 bpp
Аудио: AAC, 2 ch, ~96 kbps - | Русский | -
Формат субтитров: softsub (SRT)

***Релиз от:-=DoMiNo=-

M/I
x264 [info]: frame I:1181 Avg QP:11.55 size: 45665
x264 [info]: frame P:28238 Avg QP:14.34 size: 12838
x264 [info]: frame B:86231 Avg QP:16.27 size: 3539

General
Format : Matroska
Format version : Version 4
File size : 745 MiB
Duration : 1 h 20 min
Overall bit rate : 1 295 kb/s
Movie name : Поезд смерти.(2018).WEB-DLRip-AVC.[-=DoMiNo=-]
Encoded date : UTC 2020-05-16 19:54:51
Writing application : mkvmerge v46.0.0 ('No Deeper Escape') 64-bit
Writing library : libebml v1.3.10 + libmatroska v1.5.2
Cover : Yes
Attachments : cover.jpg / cover 2.jpg

Video
ID : 1
Format : AVC
Format/Info : Advanced Video Codec
Format profile : [email protected]
Format settings : CABAC / 12 Ref Frames
Format settings, CABAC : Yes
Format settings, Reference : 12 frames
Codec ID : V_MPEG4/ISO/AVC
Duration : 1 h 20 min
Bit rate : 1 197 kb/s
Width : 752 pixels
Height : 320 pixels
Display aspect ratio : 2.35:1
Frame rate mode : Constant
Frame rate : 23.976 (24000/1001) FPS
Color space : YUV
Chroma subsampling : 4:2:0
Bit depth : 8 bits
Scan type : Progressive
Bits/(Pixel*Frame) : 0.207
Stream size : 688 MiB (92%)
Title : RIP BY -=DoMiNo=-
Writing library : x264 core 160 r3000 33f9e14
Encoding settings : cabac=1 / ref=12 / deblock=1:-3:-3 / analyse=0x3:0x133 / me=umh / subme=10 / psy=1 / psy_rd=1.00:0.00 / mixed_ref=1 / me_range=32 / chroma_me=1 / trellis=2 / 8x8dct=1 / cqm=0 / deadzone=21,11 / fast_pskip=0 / chroma_qp_offset=-2 / threads=6 / lookahead_threads=1 / sliced_threads=0 / nr=0 / decimate=0 / interlaced=0 / bluray_compat=0 / constrained_intra=0 / bframes=12 / b_pyramid=2 / b_adapt=2 / b_bias=0 / direct=3 / weightb=1 / open_gop=0 / weightp=2 / keyint=250 / keyint_min=23 / scenecut=40 / intra_refresh=0 / rc_lookahead=60 / rc=2pass / mbtree=0 / bitrate=1197 / ratetol=1.0 / qcomp=0.60 / qpmin=0 / qpmax=69 / qpstep=4 / cplxblur=20.0 / qblur=0.5 / vbv_maxrate=50000 / vbv_bufsize=62500 / nal_hrd=none / filler=0 / ip_ratio=1.40 / pb_ratio=1.30 / aq=3:0.80
Language : English
Default : Yes
Forced : No
Color range : Limited
Color primaries : BT.709
Transfer characteristics : BT.709
Matrix coefficients : BT.709

Audio
ID : 2
Format : AAC LC SBR
Format/Info : Advanced Audio Codec Low Complexity with Spectral Band Replication
Commercial name : HE-AAC
Format settings : Implicit
Codec ID : A_AAC-2
Duration : 1 h 20 min
Bit rate : 96.0 kb/s
Channel(s) : 2 channels
Channel layout : L R
Sampling rate : 48.0 kHz
Frame rate : 23.438 FPS (2048 SPF)
Compression mode : Lossy
Stream size : 55.2 MiB (7%)
Language : Russian
Default : Yes
Forced : No

Text
ID : 3
Format : UTF-8
Codec ID : S_TEXT/UTF8
Codec ID/Info : UTF-8 Plain Text
Duration : 1 h 17 min
Bit rate : 55 b/s
Count of elements : 1158
Stream size : 31.6 KiB (0%)
Title : SDH
Language : English
Default : No
Forced : No

Menu
00:00:00.000 : en:1
00:06:45.405 : en:2
00:09:20.601 : en:3
00:14:52.557 : en:4
00:20:58.506 : en:5
00:27:11.253 : en:6
00:31:29.301 : en:7
00:34:06.249 : en:8
00:38:19.668 : en:9
00:45:04.155 : en:10
00:49:22.997 : en:11
00:56:13.531 : en:12
01:01:15.790 : en:13
01:06:58.715 : en:14
01:13:53.129 : en:15
01:15:40.985 : en:16
Скриншоты
 

Вложения

  • 30,2 KB Просмотры: 0
    Личеров 0
    Сидеров 0
    Файлов 1
    Объем 744,7 MB

Привет!

Мы группа людей которые решили помочь другим в решении их проблем, а так же пользователям с поиском самых свежих и качественных инфопродуктов. За 4 с небольшим месяца мы создали этот форум на который заходят ежедневно тысячи человек и посещаемость постоянно растёт. Мы создали панель лицензирования для защиты PHP скриптов от воровства и SEO панель для мониторинга наших сайтов и выбора верной стратегии их развития. Мы надеемся что то что мы создали пригодится Вам и возможно Вы поможете нам развиваться и совершенствоваться вместе с Вами.

Статистика форума

Темы
406.657
Сообщения
465.113
Пользователи
84.666
Новый пользователь
inqueto

Приложения форума для iOS и Android


У ркн там нет власти ;)
Приватные разговоры
Помощь Пользователи
    Вы не присоединились ни к одной комнате.