За последнюю неделю опубликовано 35 новых материалов.
Инструкция новичку Путеводитель по форуму Прокси для Telegram Показать подсказки , это бомба!

Скачать Поезд идёт на восток (1947) DVDRip от New-Team бесплатно через торрент

  • Поучаствуй (в качестве покупателя) в любых пяти совместных покупках (кроме завершённых и "Моментальных") и получи группу "Новичок" навсегда -> ссылка на раздел
  • Получай до 480 рублей за каждого приглашенного пользователя!
    представляем Вам очередное расширение партнерской программы, подробности описаны тут -> ссылка
  • 90% материалов доступно к скачиванию после простой регистрации!
    Если же ты хочешь скачивать материалы без требования оставлять отзывы то получи группу "Новичок", 10 способов повышения описаны тут -> ссылка
  • К сожалению количество битых ссылок растет и мы уже не можем их оперативно восстанавливать поэтому просим помощи у каждого нашего пользователя.
    С сегодняшнего дня, за каждую восстановленную ссылку мы заплатим Вам.
    Подробнее тут -> ссылка
  • Перенесем твои заслуги с другого ресурса!
    Мы понимаем как сложно прокачивать аккаунты на форумах, вроде раскачал аккаунт, а тут появляется ресурс в 100 раз круче но тоже с системой прокачки и снова качать аккаунт...
    Предлагаем вам перенести Ваши заслуги на другом подобном ресурсе к нам.
    Подробности описаны тут -> ссылка
  • Вы можете получать по 2.5% с каждой покупки и продажи на маркете! Подробности в теме Партнёрская программа
Если Вы не хотите скачивать, Вы всегда можетепосмотретьонлайн, просто нажмите кнопку ниже :

Открыть плеер

Torrent_Bot

Торрент-Бот
Бот форума
4 Окт 2016
93
160
20
Страна: СССР
Производство: Мосфильм

Жанр: мелодрама, комедия
Год выпуска: 1947
Продолжительность: 01:27:03

Перевод: Не требуется
Cубтитры: нет
Оригинальная аудиодорожка: русский

Режиссер: Юлий Райзман

В ролях:
Лидия Драновская, Леонид Галлис (дебют в кино), Мария Яроцкая, Михаил Воробьев, Константин Сорокин, Владимир Любимов, Владимир Лепко, Андрей Петров, Владимир Дорофеев, Мария Андрианова; не упомянуты в титрах: Пётр Глебов, Иван Рыжов, Василий Ванин, Эммануил Геллер, Алексей Бахарь, Сергей Блинников, Виктор Бубнов, Георгий Бударов, Евгений Григорьев, Зана Занони, Константин Нассонов, Любовь Соколова, Борис Терентьев, Александр Ханов, Тихон Хренников — моряк с аккордеоном, Александр Гречаный, Сергей Антимонов, Гавриил Белов, Александра Денисова, Виктор Ключарев, Елена Максимова, Николай Никитич, Владимир Уральский, Николай Горлов, Василий Бокарев, Сергей Комаров, Валентина Телегина, Олеся Иванова, Наталья Цветкова, Татьяна Барышева, Александр Хвыля, Алексей Алексеев, Николай Бармин, Муза Крепкогорская, Анатолий Соловьёв, Людмила Геника-Чиркова, Евгений Кузнецов, Татьяна Гурецкая, Сергей Троицкий...

Описание:
Вечером 9 мая 1945 года, когда на площадях и улицах Москвы тысячи людей отмечали праздник Победы, от перрона Северного (нынешнего Ярославского) вокзала отошёл поезд на Владивосток. В купе поезда встретились молоденькая девушка-садовод Зина Соколова, недавно окончившая Тимирязевскую сельскохозакадемию, и офицер-моряк Лаврентьев из Ленинграда. Познакомились они чуть раньше, у окошка вокзального телеграфа. Живой, непосредственный характер Зины моряк принял за несерьёзный, легкомысленный. Лучше узнать друг друга путешественникам помог случай: на одной из станций они отстали от поезда и дальнейший путь совершали уже вдвоём, знакомясь по дороге с людьми и с жизнью нашей необъятной Родины. Соколова и Лаврентьев попадают на огромный завод, выстроенный в тайге. На заводском самолёте они летят дальше на восток, совершают вынужденную посадку, долго едут сквозь тайгу на подводе, ночуют в колхозной МТС и наконец вновь добираются до железной дороги. Скоро конец пути — Владивосток. За время вынужденного совместного путешествия молодые люди полюбили друг друга. Решительное объяснение произошло перед самым Владивостоком. Расставаясь на вокзале, Зина и Лаврентьев знали, что их разлука продлится недолго…







Источник: DVD5 R5
Качество видео: DVDRip
Формат видео: AVI

Видео: 688x512 (4:3), 25 fps, XviD ~ 1588 kbps avg, 0.180 bit/pixel
Аудио: 48 kHz, Dolby Digital AC3 2.0, 192 kbps

Раздача от:
MediaInfo
Общее
Полное имя : Poezd.idet.na.Vostok.1947.DVDRip_[New-team]_by_AVP_Studio.avi
Формат : AVI
Формат/Информация : Audio Video Interleave
Размер файла : 1,09 Гбайт
Продолжительность : 1 ч. 27 м.
Общий поток : 1789 Кбит/сек
Программа кодирования : VirtualDubModRus 1.5.10.2 (build 2542/release)
Библиотека кодирования : VirtualDubMod build 2542/release

Видео
Идентификатор : 0
Формат : MPEG-4 Visual
Профиль формата : Advanced [email protected]
Параметр BVOP формата : 1
Параметр QPel формата : Нет
Параметр GMC формата : Без точки перехода
Параметр матрицы формата : Выборочная
Идентификатор кодека : XVID
Идентификатор кодека/Подсказка : XviD
Продолжительность : 1 ч. 27 м.
Битрейт : 1588 Кбит/сек
Ширина : 688 пикселей
Высота : 512 пикселей
Соотношение сторон : 4:3
Частота кадров : 25,000 кадров/сек
Цветовое пространство : YUV
Субдискретизация насыщенности : 4:2:0
Битовая глубина : 8 бит
Тип развёртки : Прогрессивная
Метод сжатия : С потерями
Бит/(Пиксели*Кадры) : 0.180
Размер потока : 988 Мбайт (89%)
Библиотека кодирования : XviD 73

Аудио
Идентификатор : 1
Формат : AC-3
Формат/Информация : Audio Coding 3
Расширение режима : CM (complete main)
Параметр Endianness формата : Big
Идентификатор кодека : 2000
Продолжительность : 1 ч. 27 м.
Вид битрейта : Постоянный
Битрейт : 192 Кбит/сек
Каналы : 2 канала
Расположение каналов : Front: L R
Частота : 48,0 КГц
Битовая глубина : 16 бит
Метод сжатия : С потерями
Размер потока : 120 Мбайт (11%)
Выравнивание : Разделение по промежуткам
Продолжительность промежутка : 40 мс. (1,00 видеокадр)
Время предзагрузки промежутка : 500 мс
Скриншоты
 

Вложения

  • 12,2 KB Просмотры: 0
    Личеров 0
    Сидеров 0
    Файлов 1
    Объем 1,1 GB

Привет!

Мы группа людей которые решили помочь другим в решении их проблем, а так же пользователям с поиском самых свежих и качественных инфопродуктов. За 4 с небольшим месяца мы создали этот форум на который заходят ежедневно тысячи человек и посещаемость постоянно растёт. Мы создали панель лицензирования для защиты PHP скриптов от воровства и SEO панель для мониторинга наших сайтов и выбора верной стратегии их развития. Мы надеемся что то что мы создали пригодится Вам и возможно Вы поможете нам развиваться и совершенствоваться вместе с Вами.

Статистика форума

Темы
406.602
Сообщения
464.995
Пользователи
84.324
Новый пользователь
sosigeisosigei

Приложения форума для iOS и Android


У ркн там нет власти ;)
Приватные разговоры
Помощь Пользователи
    Вы не присоединились ни к одной комнате.