За последнюю неделю опубликовано 25 новых материалов.
Инструкция новичку Путеводитель по форуму Прокси для Telegram Показать подсказки , это бомба!

Скачать Поддержите девушек / Support the Girls (2018) WEB-DLRip-AVC от OlLanDGroup | HDRezka Studio бесплатно через торрент

  • Поучаствуй (в качестве покупателя) в любых пяти совместных покупках (кроме завершённых и "Моментальных") и получи группу "Новичок" навсегда -> ссылка на раздел
  • Получай до 480 рублей за каждого приглашенного пользователя!
    представляем Вам очередное расширение партнерской программы, подробности описаны тут -> ссылка
  • 90% материалов доступно к скачиванию после простой регистрации!
    Если же ты хочешь скачивать материалы без требования оставлять отзывы то получи группу "Новичок", 10 способов повышения описаны тут -> ссылка
  • К сожалению количество битых ссылок растет и мы уже не можем их оперативно восстанавливать поэтому просим помощи у каждого нашего пользователя.
    С сегодняшнего дня, за каждую восстановленную ссылку мы заплатим Вам.
    Подробнее тут -> ссылка
  • Перенесем твои заслуги с другого ресурса!
    Мы понимаем как сложно прокачивать аккаунты на форумах, вроде раскачал аккаунт, а тут появляется ресурс в 100 раз круче но тоже с системой прокачки и снова качать аккаунт...
    Предлагаем вам перенести Ваши заслуги на другом подобном ресурсе к нам.
    Подробности описаны тут -> ссылка
  • Вы можете получать по 2.5% с каждой покупки и продажи на маркете! Подробности в теме Партнёрская программа
Если Вы не хотите скачивать, Вы всегда можетепосмотретьонлайн, просто нажмите кнопку ниже :

Открыть плеер

Torrent_Bot

Торрент-Бот
Бот форума
4 Окт 2016
96
155
20

Поддержите девушек / Support the Girls




Год выпуска: 2018
Страна: США
Производство: Burn Later Productions, Houston King Productions
Жанр: Комедия

Режиссёр: Эндрю Буджальски
В ролях: Реджина Холл, Хейли Лу Ричардсон, Дилан Гелула, Зои Грэм, Энн Маккаски, Элизабет Тье, Криста Хэйес, Виктор Исаак Перес, Джесси Маршалл, Луис Олмеда

Перевод: Профессиональный (многоголосый, закадровый) | HDRezka Studio
Субтитры: Английские (полные)
Реклама: Отсутствует

Описание: Меньше всего на свете Лиза Конрой хочет руководить придорожной забегаловкой с полуголыми официантками. Тем не менее именно там она и работает, и со временем у неё получится полюбить ресторан и её странных клиентов.



Качество: WEB-DLRip-AVC | iTunes Version | Support.the.Girls.2018.1080p.WEB-DL.DD5.1.H264-FGT
Продолжительность: 01:30:09

Формат: MKV
Видео кодек: MPEG-4 AVC
Аудио кодек: AC3
Видео: 1024x552 (1.85:1), 23,976 fps, x264 ~1 741 kbps avg, 0.128 bit/pixel
Аудио #1: 48 kHz, AC3 Dolby Digital, 2 (L,R) ch, ~192.00 kbps avg | RUS (HDRezka Studio)
Аудио #2: 48 kHz, AC3 Dolby Digital, 3/2 (L,C,R,l,r) + LFE ch, ~384.00 kbps avg | ENG


Дата премьеры (мир): 9 марта 2018



Релиз от: Rip by:

MediaInfo
Общее
Уникальный идентификатор : 78735605841082261604823476572586031769 (0x3B3BED14C0302B3EA2F2D59250E8BA99)
Полное имя : F:OlLanDGroupSupport.the.Girls.2018.WEB-DLRip(AVC).OlLanDGroup.mkv
Формат : Matroska
Версия формата : Version 4 / Version 2
Размер файла : 1,46 Гбайт
Продолжительность : 1 ч. 30 м.
Общий поток : 2308 Кбит/сек
Название фильма : Support.the.Girls.2018 #TorpedoUK#
Дата кодирования : UTC 2018-09-08 15:33:53
Программа кодирования : mkvmerge v25.0.0 ('Prog Noir') 64-bit
Библиотека кодирования : libebml v1.3.6 + libmatroska v1.4.9
Обложка : Yes
Attachments : small_cover.jpg / small_cover_land.jpg / cover.jpg / cover_land.jpg

Видео
Идентификатор : 1
Формат : AVC
Формат/Информация : Advanced Video Codec
Профиль формата : [email protected]
Параметр CABAC формата : Да
Параметр ReFrames формата : 10 кадров
Идентификатор кодека : V_MPEG4/ISO/AVC
Продолжительность : 1 ч. 30 м.
Битрейт : 1741 Кбит/сек
Ширина : 1024 пикселя
Высота : 552 пикселя
Соотношение сторон : 1,85:1
Режим частоты кадров : Постоянный
Частота кадров : 23,976 (24000/1001) кадра/сек
Цветовое пространство : YUV
Субдискретизация насыщенности : 4:2:0
Битовая глубина : 8 бит
Тип развёртки : Прогрессивная
Бит/(Пиксели*Кадры) : 0.128
Размер потока : 1,09 Гбайт (75%)
Библиотека кодирования : x264 core 146 r2538 121396c
Настройки программы : cabac=1 / ref=10 / deblock=1:-2:-3 / analyse=0x3:0x113 / me=umh / subme=11 / psy=1 / psy_rd=0.97:0.07 / mixed_ref=1 / me_range=48 / chroma_me=1 / trellis=2 / 8x8dct=1 / cqm=0 / deadzone=21,11 / fast_pskip=1 / chroma_qp_offset=-3 / threads=6 / lookahead_threads=1 / sliced_threads=0 / nr=0 / decimate=1 / interlaced=0 / bluray_compat=0 / constrained_intra=0 / bframes=10 / b_pyramid=2 / b_adapt=2 / b_bias=0 / direct=3 / weightb=1 / open_gop=0 / weightp=2 / keyint=240 / keyint_min=23 / scenecut=40 / intra_refresh=0 / rc_lookahead=40 / rc=2pass / mbtree=0 / bitrate=1741 / ratetol=1.0 / qcomp=0.60 / qpmin=0 / qpmax=69 / qpstep=4 / cplxblur=20.0 / qblur=0.5 / vbv_maxrate=50000 / vbv_bufsize=62500 / nal_hrd=none / filler=0 / ip_ratio=1.40 / pb_ratio=1.30 / aq=1:1.00
Default : Да
Forced : Нет

Аудио #1
Идентификатор : 2
Формат : AC-3
Формат/Информация : Audio Coding 3
Расширение режима : CM (complete main)
Параметр Endianness формата : Big
Идентификатор кодека : A_AC3
Продолжительность : 1 ч. 30 м.
Вид битрейта : Постоянный
Битрейт : 192 Кбит/сек
Каналы : 2 канала
Расположение каналов : Front: L R
Частота : 48,0 КГц
Частота кадров : 31,250 кадров/сек (1536 spf)
Битовая глубина : 16 бит
Метод сжатия : С потерями
Размер потока : 124 Мбайт (8%)
Заголовок : MVO [HDRezka Studio]
Язык : Russian
Default : Да
Forced : Нет

Аудио #2
Идентификатор : 3
Формат : AC-3
Формат/Информация : Audio Coding 3
Расширение режима : CM (complete main)
Параметр Endianness формата : Big
Идентификатор кодека : A_AC3
Продолжительность : 1 ч. 30 м.
Вид битрейта : Постоянный
Битрейт : 384 Кбит/сек
Каналы : 6 каналов
Расположение каналов : Front: L C R, Side: L R, LFE
Частота : 48,0 КГц
Частота кадров : 31,250 кадров/сек (1536 spf)
Битовая глубина : 16 бит
Метод сжатия : С потерями
Размер потока : 248 Мбайт (17%)
Заголовок : [Original]
Язык : English
Default : Нет
Forced : Нет

Текст
Идентификатор : 4
Формат : UTF-8
Идентификатор кодека : S_TEXT/UTF8
Идентификатор кодека/Информация : UTF-8 Plain Text
Продолжительность : 1 ч. 30 м.
Битрейт : 85 бит/сек
Count of elements : 1536
Размер потока : 56,1 Кбайт (0%)
Заголовок : Full
Язык : English
Default : Нет
Forced : Нет

Меню
00:00:00.000 : en:Interviews
00:05:26.534 : en:The Girls
00:11:02.493 : en:Sound Town
00:17:01.435 : en:Cables out
00:22:42.984 : en:The Food
00:28:34.752 : en:Owner arrives
00:33:42.350 : en:Mancave
00:39:14.806 : en:Apartments
00:45:40.525 : en:Juice Spot
00:50:10.503 : en:Grounds for Termination
00:55:06.256 : en:Car Troubles
01:01:18.795 : en:Turn over
01:05:21.037 : en:Fight Night
01:09:50.806 : en:Rule 1
01:15:26.724 : en:New Beginnings
01:20:48.212 : en:Rooftop
Скриншоты


 

Вложения

  • 15,6 KB Просмотры: 1
    Личеров 0
    Сидеров 0
    Файлов 1
    Объем 1,5 GB

Привет!

Мы группа людей которые решили помочь другим в решении их проблем, а так же пользователям с поиском самых свежих и качественных инфопродуктов. За 4 с небольшим месяца мы создали этот форум на который заходят ежедневно тысячи человек и посещаемость постоянно растёт. Мы создали панель лицензирования для защиты PHP скриптов от воровства и SEO панель для мониторинга наших сайтов и выбора верной стратегии их развития. Мы надеемся что то что мы создали пригодится Вам и возможно Вы поможете нам развиваться и совершенствоваться вместе с Вами.

Статистика форума

Темы
406.518
Сообщения
464.550
Пользователи
82.839
Новый пользователь
Akropolis

Приложения форума для iOS и Android


У ркн там нет власти ;)
Приватные разговоры
Помощь Пользователи
    Вы не присоединились ни к одной комнате.