За последнюю неделю опубликовано 34 новых материалов.
Инструкция новичку Путеводитель по форуму Прокси для Telegram Показать подсказки , это бомба!

Скачать Подарок на Рождество / Jingle All the Way (1996) DVDRip-AVC | P | Fullscreen бесплатно через торрент

  • Поучаствуй (в качестве покупателя) в любых пяти совместных покупках (кроме завершённых и "Моментальных") и получи группу "Новичок" навсегда -> ссылка на раздел
  • Получай до 480 рублей за каждого приглашенного пользователя!
    представляем Вам очередное расширение партнерской программы, подробности описаны тут -> ссылка
  • 90% материалов доступно к скачиванию после простой регистрации!
    Если же ты хочешь скачивать материалы без требования оставлять отзывы то получи группу "Новичок", 10 способов повышения описаны тут -> ссылка
  • К сожалению количество битых ссылок растет и мы уже не можем их оперативно восстанавливать поэтому просим помощи у каждого нашего пользователя.
    С сегодняшнего дня, за каждую восстановленную ссылку мы заплатим Вам.
    Подробнее тут -> ссылка
  • Перенесем твои заслуги с другого ресурса!
    Мы понимаем как сложно прокачивать аккаунты на форумах, вроде раскачал аккаунт, а тут появляется ресурс в 100 раз круче но тоже с системой прокачки и снова качать аккаунт...
    Предлагаем вам перенести Ваши заслуги на другом подобном ресурсе к нам.
    Подробности описаны тут -> ссылка
  • Вы можете получать по 2.5% с каждой покупки и продажи на маркете! Подробности в теме Партнёрская программа
Если Вы не хотите скачивать, Вы всегда можетепосмотретьонлайн, просто нажмите кнопку ниже :

Открыть плеер

Torrent_Bot

Торрент-Бот
Бот форума
4 Окт 2016
93
160
20



Название: Подарок на Рождество
Оригинальное название: Jingle All the Way
Год выхода: 1996
Жанр: комедия, приключения, семейный
Режиссер: Брайан Левант
В ролях: Арнольд Шварценеггер, Синбад, Фил Хартмен, Рита Уилсон, Роберт Конрад, Мартин Мулл, Джейк Ллойд, Джеймс Белуши, Э.Дж. Де Ла Пена, Лорейн Ньюмен

О фильме:
Ужасно занятый на работе отец постоянно опаздывает на семейные мероприятия. После очередной «неявки» на выступление собственного сына по карате он обещает купить ему на Рождество суперигрушку — Турбомена и, естественно, в суете рождественских хлопот благополучно забывает об обещании.
И вот начинается лихорадочная гонка за упомянутой игрушкой в самый последний день. Но уж больно много желающих, а игрушек осталось всего ничего.



Страна: США
Продолжительность: 01:29:34
Перевод: Профессиональный (многоголосый закадровый)

Формат: MKV
Качество: DVDRip-AVC
Видео: AVC/H.264, 710x480(4:3)@710x540, 23.976 fps, ~2711 Kbps
Аудио 1: AC3, 6 ch, 384 kbps - Русский (MVO)
Аудио 2: AC3, 6 ch, 384 kbps - Английский
Субтитры: русские, английские

MediaInfo
General
Unique ID : 271709305976586386058601856462607061795 (0xCC694F111D56C00E27839B30775F9323)
Complete name : D:Подарок на Рождество (1996) DVDRip-AVC Fullscreen.mkv
Format : Matroska
Format version : Version 4
File size : 2.18 GiB
Duration : 1 h 29 min
Overall bit rate : 3 481 kb/s
Encoded date : UTC 2019-01-07 03:56:46
Writing application : mkvmerge v30.1.0 ('Forever And More') 64-bit
Writing library : libebml v1.3.6 + libmatroska v1.4.9

Video
ID : 1
Format : AVC
Format/Info : Advanced Video Codec
Format profile : [email protected]
Format settings : CABAC / 12 Ref Frames
Format settings, CABAC : Yes
Format settings, Reference : 12 frames
Codec ID : V_MPEG4/ISO/AVC
Duration : 1 h 29 min
Bit rate : 2 711 kb/s
Width : 710 pixels
Height : 480 pixels
Display aspect ratio : 4:3
Frame rate mode : Constant
Frame rate : 23.976 (24000/1001) FPS
Color space : YUV
Chroma subsampling : 4:2:0
Bit depth : 8 bits
Scan type : Progressive
Bits/(Pixel*Frame) : 0.332
Stream size : 1.70 GiB (78%)
Writing library : x264 core 157 r2935 545de2f
Encoding settings : cabac=1 / ref=12 / deblock=1:-3:-3 / analyse=0x3:0x133 / me=umh / subme=10 / psy=1 / psy_rd=1.30:0.15 / mixed_ref=1 / me_range=48 / chroma_me=1 / trellis=2 / 8x8dct=1 / cqm=0 / deadzone=21,11 / fast_pskip=0 / chroma_qp_offset=-3 / threads=3 / lookahead_threads=1 / sliced_threads=0 / nr=0 / decimate=0 / interlaced=0 / bluray_compat=0 / constrained_intra=0 / bframes=10 / b_pyramid=2 / b_adapt=2 / b_bias=0 / direct=3 / weightb=1 / open_gop=0 / weightp=2 / keyint=240 / keyint_min=23 / scenecut=40 / intra_refresh=0 / rc_lookahead=60 / rc=2pass / mbtree=0 / bitrate=2711 / ratetol=1.0 / qcomp=0.60 / qpmin=0 / qpmax=69 / qpstep=4 / cplxblur=20.0 / qblur=0.5 / vbv_maxrate=50000 / vbv_bufsize=62500 / nal_hrd=none / filler=0 / ip_ratio=1.40 / pb_ratio=1.30 / aq=1:0.60
Default : Yes
Forced : No
Color range : Limited
Color primaries : BT.601 NTSC
Transfer characteristics : BT.601
Matrix coefficients : BT.601

Audio #1
ID : 2
Format : AC-3
Format/Info : Audio Coding 3
Commercial name : Dolby Digital
Codec ID : A_AC3
Duration : 1 h 29 min
Bit rate mode : Constant
Bit rate : 384 kb/s
Channel(s) : 6 channels
Channel layout : L R C LFE Ls Rs
Sampling rate : 48.0 kHz
Frame rate : 31.250 FPS (1536 SPF)
Bit depth : 16 bits
Compression mode : Lossy
Stream size : 246 MiB (11%)
Title : DVO Blu-Ray CEE
Language : Russian
Service kind : Complete Main
Default : Yes
Forced : No

Audio #2
ID : 3
Format : AC-3
Format/Info : Audio Coding 3
Commercial name : Dolby Digital
Codec ID : A_AC3
Duration : 1 h 29 min
Bit rate mode : Constant
Bit rate : 384 kb/s
Channel(s) : 6 channels
Channel layout : L R C LFE Ls Rs
Sampling rate : 48.0 kHz
Frame rate : 31.250 FPS (1536 SPF)
Bit depth : 16 bits
Compression mode : Lossy
Stream size : 246 MiB (11%)
Title : Original
Language : English
Service kind : Complete Main
Default : No
Forced : No

Text #1
ID : 4
Format : UTF-8
Codec ID : S_TEXT/UTF8
Codec ID/Info : UTF-8 Plain Text
Duration : 1 h 28 min
Bit rate : 86 b/s
Count of elements : 1049
Stream size : 56.1 KiB (0%)
Language : Russian
Default : No
Forced : No

Text #2
ID : 5
Format : UTF-8
Codec ID : S_TEXT/UTF8
Codec ID/Info : UTF-8 Plain Text
Duration : 1 h 28 min
Bit rate : 59 b/s
Count of elements : 1226
Stream size : 38.7 KiB (0%)
Language : English
Default : No
Forced : No

Menu
00:00:00.000 : en:Main Titles: Men of Action
00:07:58.144 : en:Jamie's Christmas Wish
00:13:46.242 : en:The Hunt Begins
00:16:21.855 : en:Howard Meets Myron
00:18:36.740 : en:This is War
00:22:42.527 : en:Good Neighbor Ted
00:24:48.862 : en:No Team Player
00:26:51.943 : en:Mall Madness
00:29:14.002 : en:The Bouncing Ball
00:31:29.512 : en:Back Door Santa
00:37:39.297 : en:Busted
00:39:10.723 : en:You Never Keep Your Promises!
00:42:15.366 : en:Cofee Talk
00:45:34.189 : en:An Explosive Situation
00:53:30.623 : en:Breaking and Entering
00:59:37.740 : en:The Wintertainment Parade
01:01:56.379 : en:Ted's Comeuppance
01:04:40.626 : en:Showtime
01:09:00.302 : en:pick a Kid
01:10:40.819 : en:Dementor and His Demon Team
01:14:15.367 : en:Fly, Turbo Man!
01:18:27.035 : en:That's My Dad
01:21:21.501 : en:End Credits
01:28:46.612 : en:Here We Go Again
Сравнения:


Скриншоты

 

Вложения

  • 11,8 KB Просмотры: 0
    Личеров 0
    Сидеров 0
    Файлов 1
    Объем 2,2 GB

Привет!

Мы группа людей которые решили помочь другим в решении их проблем, а так же пользователям с поиском самых свежих и качественных инфопродуктов. За 4 с небольшим месяца мы создали этот форум на который заходят ежедневно тысячи человек и посещаемость постоянно растёт. Мы создали панель лицензирования для защиты PHP скриптов от воровства и SEO панель для мониторинга наших сайтов и выбора верной стратегии их развития. Мы надеемся что то что мы создали пригодится Вам и возможно Вы поможете нам развиваться и совершенствоваться вместе с Вами.

Статистика форума

Темы
406.602
Сообщения
464.991
Пользователи
84.247
Новый пользователь
Vooooo

Приложения форума для iOS и Android


У ркн там нет власти ;)
Приватные разговоры
Помощь Пользователи
    Вы не присоединились ни к одной комнате.