За последнюю неделю опубликовано 69 новых материалов.
Инструкция новичку Путеводитель по форуму Прокси для Telegram Показать подсказки , это бомба!

Скачать Под прикрытием [01-12 из 12] (2012) DVDRip от New-Team | лицензия бесплатно через торрент

  • Поучаствуй (в качестве покупателя) в любых пяти совместных покупках (кроме завершённых и "Моментальных") и получи группу "Новичок" навсегда -> ссылка на раздел
  • Получай до 480 рублей за каждого приглашенного пользователя!
    представляем Вам очередное расширение партнерской программы, подробности описаны тут -> ссылка
  • 90% материалов доступно к скачиванию после простой регистрации!
    Если же ты хочешь скачивать материалы без требования оставлять отзывы то получи группу "Новичок", 10 способов повышения описаны тут -> ссылка
  • К сожалению количество битых ссылок растет и мы уже не можем их оперативно восстанавливать поэтому просим помощи у каждого нашего пользователя.
    С сегодняшнего дня, за каждую восстановленную ссылку мы заплатим Вам.
    Подробнее тут -> ссылка
  • Перенесем твои заслуги с другого ресурса!
    Мы понимаем как сложно прокачивать аккаунты на форумах, вроде раскачал аккаунт, а тут появляется ресурс в 100 раз круче но тоже с системой прокачки и снова качать аккаунт...
    Предлагаем вам перенести Ваши заслуги на другом подобном ресурсе к нам.
    Подробности описаны тут -> ссылка
  • Вы можете получать по 2.5% с каждой покупки и продажи на маркете! Подробности в теме Партнёрская программа
Если Вы не хотите скачивать, Вы всегда можетепосмотретьонлайн, просто нажмите кнопку ниже :

Открыть плеер

Torrent_Bot

Торрент-Бот
Бот форума
4 Окт 2016
79
194
20
bd89ae7910f807eab2de918f20620109.png
Год выпуска: 2012
Выпущено: Россия / ДТ Продакшн

Жанр: боевик
Продолжительность: ~ 00:51:00 / серия

Перевод: не требуется
Оригинальная аудиодорожка: русский
Субтитры: нет

Режиссер: Тимур Алпатов

В ролях: Сергей Газаров, Владимир Яглыч, Гурам Баблишвили, Владислав Котлярский, Софья Торосян, Максим Важов, Карина Разумовская, Михаил Солодко, Эдуард Рябинин, Дмитрий Проданов...

Описание: Олегу Резвову не очень-то посчастливилось пожить своей жизнью. Сначала «по малолетке» отсидел в тюрьме за преступление, которое не совершал. Потом, после армии, поступил в ФСБ, где его жизнью, в общем-то, распоряжаются старшие по званию. И вот, новое задание: под видом бывшего уголовника внедриться в преступный бизнес майкопской группировки и обезвредить её. Внедриться — это значит полностью жить чужой жизнью и, практически, стать другим человеком. Но рядом бурлит обычная прекрасная жизнь, полная людей, верящих в добро, чистоту, любовь, где есть дом, семья, дети… Сложную операцию готовят и прикрывают многие люди, но свою, обычную жизнь, нельзя прожить под прикрытием. В этой жизни его хотят видеть самим собой, таким, какой он есть. Особенно те, кто его любит.


ea6864e7fbe753e3428001033a81cbed.gif



Качество: DVDRip (2xDVD9 R5)
Формат: AVI

Видео: 720x400 (16:9), 25.000 fps, XviD ~ 1800 kbps avg, 0.250 bit/pixel
Аудио: 48 kHz, Dolby AC3 5.1 384 kbps, русский

Релиз от: 4a710a99de2a7e38c029a554d812506c.png99e44994b7b9acd8bde877cb8ad2f429.gif
MediaInfo
Общее
Полное имя : Pod.prikrytiem.2012.O.DVDRip_[Youtracker]_by_avproh�1.avi
Формат : AVI
Формат/Информация : Audio Video Interleave
Размер файла : 803 Мбайт
Продолжительность : 51 м.
Общий поток : 2195 Кбит/сек
Программа кодирования : VirtualDubModRus 1.5.10.2 (build 2542/release)
Библиотека кодирования : VirtualDubMod build 2542/release

Видео
Идентификатор : 0
Формат : MPEG-4 Visual
Профиль формата : Advanced [email protected]
Параметр BVOP формата : 1
Параметр QPel формата : Нет
Параметр GMC формата : Без точки перехода
Параметр матрицы формата : Выборочная
Идентификатор кодека : XVID
Идентификатор кодека/Подсказка : XviD
Продолжительность : 51 м.
Битрейт : 1802 Кбит/сек
Ширина : 720 пикселей
Высота : 400 пикселей
Соотношение сторон : 16:9
Частота кадров : 25,000 кадров/сек
Цветовое пространство : YUV
Субдискретизация насыщенности : 4:2:0
Битовая глубина : 8 бит
Тип развёртки : Прогрессивная
Метод сжатия : С потерями
Бит/(Пиксели*Кадры) : 0.250
Размер потока : 659 Мбайт (82%)
Библиотека кодирования : XviD 65

Аудио
Идентификатор : 1
Формат : AC-3
Формат/Информация : Audio Coding 3
Расширение режима : CM (complete main)
Параметр Endianness формата : Big
Идентификатор кодека : 2000
Продолжительность : 51 м.
Вид битрейта : Постоянный
Битрейт : 384 Кбит/сек
Каналы : 6 каналов
Расположение каналов : Front: L C R, Side: L R, LFE
Частота : 48,0 КГц
Битовая глубина : 16 бит
Метод сжатия : С потерями
Размер потока : 140 Мбайт (17%)
Выравнивание : Разделение по промежуткам
Продолжительность промежутка : 40 мс. (1,00 видеокадр)
Время предзагрузки промежутка : 500 мс.
Скриншоты
099f4242664c8718682e9df308d8043b.jpeg4ae887eb0afa4adb58714b23b793d707.jpeg6398bf951be4fd9b3a6c99a807b17001.jpeg3db15231a9e14075776924ecbf0a1990.jpeg37a235d896633d4a2231a622cab2a24b.jpeg93fe517e808621c5bb089113aacc4c3f.jpeg
Сравнение
http://rutor.org/torrent/273243/

Звук в моём релизе нормальный шестиканальный АС3. Во всех предыдущих релизах звук двухканальный. Понизил оригинальный звук до 384 кбпс, поскольку качество исходного звука не выше соответствующего порога (18 кгц), что позволило оставить больше места для видео. Исходник у конкурента просто никакой (http://rutor.org/torrent/270585/pod-prikrytiem-01-12-iz-12-2012-hdtv-1080i), плотность кадра 0.150, на DVD, с которого я делал рип - примерно 0.300, сначала хотел было сделать HDTVRip и даже скодировал одну серию, но потом понял, что с DVD получится намного лучше. Пожалуй это первый случай в моей практике, когда DVDRip лучше, чем HDTVRip. Картина у конкурента рассыпается в движении полностью, вторая пара скринов сравнения - это вообще ключевые кадры и даже на них есть множество артефактов. Изображения как бы стеклянные, такое впечатление, что хотели повысить резкость, а получилось очень скверно. Битрейт у нас одинаковый, звук только разный, там 2 канала 192 кбпс, у меня 6 каналов и 384 кбпс.
Плюс цитата из MI конкурента:

ЦитатаКто-то писал:
Соотношение сторон : 5:4
Соотношение сторон в оригинале : 16:9
Анаморф то тут было зачем делать?

Смотрите сами:

Not found : Screenshot Comparison
 

Вложения

  • 48,5 KB Просмотры: 0
    Личеров 0
    Сидеров 0
    Файлов 12
    Объем 9,4 GB

Привет!

Мы группа людей которые решили помочь другим в решении их проблем, а так же пользователям с поиском самых свежих и качественных инфопродуктов. За 4 с небольшим месяца мы создали этот форум на который заходят ежедневно тысячи человек и посещаемость постоянно растёт. Мы создали панель лицензирования для защиты PHP скриптов от воровства и SEO панель для мониторинга наших сайтов и выбора верной стратегии их развития. Мы надеемся что то что мы создали пригодится Вам и возможно Вы поможете нам развиваться и совершенствоваться вместе с Вами.

Статистика форума

Темы
414.370
Сообщения
475.396
Пользователи
96.561
Новый пользователь
starushka

Приложения форума для iOS и Android


У ркн там нет власти ;)
Приватные разговоры
Помощь Пользователи
    Вы не присоединились ни к одной комнате.