За последнюю неделю опубликовано 35 новых материалов.
Инструкция новичку Путеводитель по форуму Прокси для Telegram Показать подсказки , это бомба!

Скачать Под откос / Derailed (2002) BDRip 720p by msltel | P2, A бесплатно через торрент

  • Поучаствуй (в качестве покупателя) в любых пяти совместных покупках (кроме завершённых и "Моментальных") и получи группу "Новичок" навсегда -> ссылка на раздел
  • Получай до 480 рублей за каждого приглашенного пользователя!
    представляем Вам очередное расширение партнерской программы, подробности описаны тут -> ссылка
  • 90% материалов доступно к скачиванию после простой регистрации!
    Если же ты хочешь скачивать материалы без требования оставлять отзывы то получи группу "Новичок", 10 способов повышения описаны тут -> ссылка
  • К сожалению количество битых ссылок растет и мы уже не можем их оперативно восстанавливать поэтому просим помощи у каждого нашего пользователя.
    С сегодняшнего дня, за каждую восстановленную ссылку мы заплатим Вам.
    Подробнее тут -> ссылка
  • Перенесем твои заслуги с другого ресурса!
    Мы понимаем как сложно прокачивать аккаунты на форумах, вроде раскачал аккаунт, а тут появляется ресурс в 100 раз круче но тоже с системой прокачки и снова качать аккаунт...
    Предлагаем вам перенести Ваши заслуги на другом подобном ресурсе к нам.
    Подробности описаны тут -> ссылка
  • Вы можете получать по 2.5% с каждой покупки и продажи на маркете! Подробности в теме Партнёрская программа
Если Вы не хотите скачивать, Вы всегда можетепосмотретьонлайн, просто нажмите кнопку ниже :

Открыть плеер

Torrent_Bot

Торрент-Бот
Бот форума
4 Окт 2016
93
160
20



Название: Под откос
Оригинальное название: Derailed
Год выпуска: 2002
Жанр:Боевик, триллер
Выпущено: США, Аруба, 777 Films Corporation, Halt Productions A.V.V., Millennium Films, Nu-Image Films
Режиссер: Боб Мисиоровски
В ролях: Жан-Клод Ван Дамм, Томас Арана, Лора Хэрринг, Сьюзэн Гибни, Люси Дженнер, Джессика Боуман, Кристофер Ван Варенберг, Джон Бишоп, Бинки ван Билдербик, Дэйтон Калли, Симона Левин, Сандра Видал, Стефанос Мильцакакис, Джимми Жан-Луи, Джордж Станчев, Николай Бинев, Станимир Стаматов, Данко Йорданов, Трайан Миленов-Трой, Эмиль Тонев, Велизар Пеев

О фильме: Новое спецзадание по плечу гениальному оперативнику НАТО Жаку Кристофу. Он должен сопроводить из Словакии в Германию неуловимую воровку Галину, но он не подозревает, что эта рутинная работа станет самой опасной в его карьере. Уйдя от погони на узких улочках Братиславы, отчаянные шпионы садятся в поезд до Мюнхена и становятся заложниками банды террористов, чей вожак Мэйсон хочет любой ценой завладеть секретным грузом Галины - новым опаснейшим вирусом оспы. Вскоре Жак понимает, что от его решительных действий зависит не только жизнь пассажиров экспресса, но и судьба всего мира, который охватит страшная эпидемия, если он не обезвредит маньяка, жаждущего власти над миром.

Качество: BDRip 720p
Видео: MPEG-4 AVC, 6263 Kбит/с, 1280x720
Аудио: Русский, английский (AC3, 6 ch, 448 Кбит/с)
Размер: 4.81 ГБ
Продолжительность: 01:28:39
Перевод: Профессиональный двухголосый (R5), авторский (Леонид Володарский)
Субтитры: Русские (2 варианта), английские

Имеются неименованные главы/чаптеры.

Исходник: igorella87 (Кинозал)

Сравнение с исходником



MediaInfo + Лог х264
Общее
Уникальный идентификатор : 197114362592810072664016217767058396569 (0x944AD8681CC83D868EEDB35456F0D599)
Полное имя : E:VideoPod.otkos.2002.x264.BDRip.720p.mkv
Формат : Matroska
Версия формата : Version 4 / Version 2
Размер файла : 4,81 Гбайт
Продолжительность : 1 ч. 28 м.
Общий поток : 7761 Кбит/сек
Название фильма : Под откос / Derailed / 2002 / BDRip -- STarankov
Дата кодирования : UTC 2013-11-20 15:45:11
Программа кодирования : mkvmerge v6.4.1 ('Omega Point') built on Sep 16 2013 22:05:10
Библиотека кодирования : libebml v1.3.0 + libmatroska v1.4.1

Видео
Идентификатор : 1
Формат : AVC
Формат/Информация : Advanced Video Codec
Профиль формата : [email protected]
Параметр CABAC формата : Да
Параметр ReFrames формата : 9 кадров
Идентификатор кодека : V_MPEG4/ISO/AVC
Продолжительность : 1 ч. 28 м.
Битрейт : 6263 Кбит/сек
Ширина : 1280 пикселей
Высота : 720 пикселей
Соотношение сторон : 16:9
Режим частоты кадров : Постоянный
Частота кадров : 23,976 кадра/сек
Цветовое пространство : YUV
Субдискретизация насыщенности : 4:2:0
Битовая глубина : 8 бит
Тип развёртки : Прогрессивная
Бит/(Пиксели*Кадры) : 0.283
Размер потока : 3,88 Гбайт (81%)
Библиотека кодирования : x264 core 133 r2334 a3ac64b
Настройки программы : cabac=1 / ref=9 / deblock=1:-2:-2 / analyse=0x3:0x113 / me=umh / subme=10 / psy=1 / psy_rd=1.00:0.15 / mixed_ref=1 / me_range=24 / chroma_me=1 / trellis=2 / 8x8dct=1 / cqm=0 / deadzone=21,11 / fast_pskip=0 / chroma_qp_offset=-3 / threads=6 / lookahead_threads=1 / sliced_threads=0 / nr=0 / decimate=1 / interlaced=0 / bluray_compat=0 / constrained_intra=0 / bframes=8 / b_pyramid=2 / b_adapt=2 / b_bias=0 / direct=1 / weightb=1 / open_gop=0 / weightp=2 / keyint=230 / keyint_min=23 / scenecut=40 / intra_refresh=0 / rc_lookahead=40 / rc=crf / mbtree=0 / crf=22.0 / qcomp=0.60 / qpmin=0 / qpmax=69 / qpstep=4 / vbv_maxrate=50000 / vbv_bufsize=62500 / crf_max=0.0 / nal_hrd=none / ip_ratio=1.40 / pb_ratio=1.30 / aq=1:1.00
Язык : English
Default : Да
Forced : Нет

Аудио #1
Идентификатор : 2
Формат : AC-3
Формат/Информация : Audio Coding 3
Расширение режима : CM (complete main)
Параметр Endianness формата : Big
Идентификатор кодека : A_AC3
Продолжительность : 1 ч. 28 м.
Вид битрейта : Постоянный
Битрейт : 448 Кбит/сек
Каналы : 6 каналов
Расположение каналов : Front: L C R, Side: L R, LFE
Частота : 48,0 КГц
Битовая глубина : 16 бит
Метод сжатия : С потерями
Размер потока : 284 Мбайт (6%)
Заголовок : DVO (R5)
Язык : Russian
Default : Да
Forced : Нет

Аудио #2
Идентификатор : 3
Формат : AC-3
Формат/Информация : Audio Coding 3
Расширение режима : CM (complete main)
Параметр Endianness формата : Big
Идентификатор кодека : A_AC3
Продолжительность : 1 ч. 28 м.
Вид битрейта : Постоянный
Битрейт : 448 Кбит/сек
Каналы : 6 каналов
Расположение каналов : Front: L C R, Side: L R, LFE
Частота : 48,0 КГц
Битовая глубина : 16 бит
Метод сжатия : С потерями
Размер потока : 284 Мбайт (6%)
Заголовок : AVO (Леонид Володарский)
Язык : Russian
Default : Нет
Forced : Нет

Аудио #3
Идентификатор : 4
Формат : AC-3
Формат/Информация : Audio Coding 3
Расширение режима : CM (complete main)
Параметр Endianness формата : Big
Идентификатор кодека : A_AC3
Продолжительность : 1 ч. 28 м.
Вид битрейта : Постоянный
Битрейт : 448 Кбит/сек
Каналы : 6 каналов
Расположение каналов : Front: L C R, Side: L R, LFE
Частота : 48,0 КГц
Битовая глубина : 16 бит
Метод сжатия : С потерями
Размер потока : 284 Мбайт (6%)
Заголовок : Original
Язык : English
Default : Нет
Forced : Нет

Текст #1
Идентификатор : 5
Формат : UTF-8
Идентификатор кодека : S_TEXT/UTF8
Идентификатор кодека/Информация : UTF-8 Plain Text
Заголовок : русский (вариант 1)
Язык : Russian
Default : Нет
Forced : Нет

Текст #2
Идентификатор : 6
Формат : UTF-8
Идентификатор кодека : S_TEXT/UTF8
Идентификатор кодека/Информация : UTF-8 Plain Text
Заголовок : русский (вариант 2)
Язык : Russian
Default : Нет
Forced : Нет

Текст #3
Идентификатор : 7
Формат : UTF-8
Идентификатор кодека : S_TEXT/UTF8
Идентификатор кодека/Информация : UTF-8 Plain Text
Заголовок : английский
Default : Нет
Forced : Нет

Меню
00:00:00.000 : en:00:00:00.000
00:08:40.061 : en:00:08:40.061
00:16:53.721 : en:00:16:53.721
00:24:01.482 : en:00:24:01.482
00:32:26.027 : en:00:32:26.027
00:39:01.339 : en:00:39:01.339
00:47:00.234 : en:00:47:00.234
00:56:43.191 : en:00:56:43.191
01:03:13.790 : en:01:03:13.790
01:11:22.153 : en:01:11:22.153
01:17:06.455 : en:01:17:06.455
01:24:36.363 : en:01:24:36.363

---[Information] [20.11.2013 10:39:13] avs [info]: 1280x720p 1:1 @ 24000/1001 fps (cfr)
---[Information] [20.11.2013 10:39:13] x264 [info]: using SAR=1/1
---[Information] [20.11.2013 10:39:13] x264 [info]: using cpu capabilities: MMX2 SSE2Fast SSSE3 SSE4.2
---[Information] [20.11.2013 10:39:13] x264 [info]: profile High, level 4.1
---[Information] [20.11.2013 21:52:47] x264 [info]: frame I:1018 Avg QP:21.41 size: 97928
---[Information] [20.11.2013 21:52:47] x264 [info]: frame P:26142 Avg QP:22.53 size: 62292
---[Information] [20.11.2013 21:52:47] x264 [info]: frame B:100389 Avg QP:25.07 size: 25274
---[Information] [20.11.2013 21:52:47] x264 [info]: consecutive B-frames: 2.3% 2.3% 5.3% 15.0% 16.1% 39.0% 9.8% 7.2% 3.0%
---[Information] [20.11.2013 21:52:47] x264 [info]: mb I I16..4: 9.5% 85.6% 4.9%
---[Information] [20.11.2013 21:52:47] x264 [info]: mb P I16..4: 1.1% 36.4% 0.8% P16..4: 30.4% 17.9% 7.6% 0.0% 0.0% skip: 5.7%
---[Information] [20.11.2013 21:52:47] x264 [info]: mb B I16..4: 0.0% 2.2% 0.0% B16..8: 50.4% 13.6% 4.2% direct: 8.3% skip:21.1% L0:46.2% L1:50.4% BI: 3.4%
---[Information] [20.11.2013 21:52:47] x264 [info]: 8x8 transform intra:94.3% inter:65.9%
---[Information] [20.11.2013 21:52:47] x264 [info]: coded y,uvDC,uvAC intra: 95.8% 51.2% 9.2% inter: 43.6% 19.8% 0.2%
---[Information] [20.11.2013 21:52:47] x264 [info]: i16 v,h,dc,p: 46% 15% 17% 23%
---[Information] [20.11.2013 21:52:47] x264 [info]: i8 v,h,dc,ddl,ddr,vr,hd,vl,hu: 6% 5% 11% 12% 15% 14% 13% 12% 12%
---[Information] [20.11.2013 21:52:47] x264 [info]: i4 v,h,dc,ddl,ddr,vr,hd,vl,hu: 9% 7% 3% 10% 16% 16% 15% 12% 12%
---[Information] [20.11.2013 21:52:47] x264 [info]: i8c dc,h,v,p: 39% 31% 19% 11%
---[Information] [20.11.2013 21:52:47] x264 [info]: Weighted P-Frames: Y:8.3% UV:4.9%
---[Information] [20.11.2013 21:52:47] x264 [info]: ref P L0: 41.2% 8.6% 20.5% 8.4% 7.0% 4.6% 4.3% 2.4% 2.6% 0.4% 0.0%
---[Information] [20.11.2013 21:52:47] x264 [info]: ref B L0: 63.0% 16.3% 8.9% 4.5% 3.1% 2.5% 1.2% 0.4%
---[Information] [20.11.2013 21:52:47] x264 [info]: ref B L1: 89.8% 10.2%
---[Information] [20.11.2013 21:52:47] x264 [info]: kb/s:6414.30
---[Information] [20.11.2013 21:52:47] encoded 127549 frames, 3.16 fps, 6414.30 kb/s
--[Information] [20.11.2013 21:52:51] Final statistics
---[Information] [20.11.2013 21:52:51] Constant Quality Mode: Quality 22 computed...
---[Information] [20.11.2013 21:52:51] Video Bitrate Obtained (approximate): 6415 kbit/s
--[Information] [20.11.2013 21:52:51] MediaInfo
---[Information] File: E:RipPod.otkos.2002.x264.BDRipPod.otkos.2002.x264.BDRip.720p.mkv
Скриншоты

 

Вложения

  • 25,1 KB Просмотры: 1
    Личеров 0
    Сидеров 0
    Файлов 1
    Объем 4,8 GB

Привет!

Мы группа людей которые решили помочь другим в решении их проблем, а так же пользователям с поиском самых свежих и качественных инфопродуктов. За 4 с небольшим месяца мы создали этот форум на который заходят ежедневно тысячи человек и посещаемость постоянно растёт. Мы создали панель лицензирования для защиты PHP скриптов от воровства и SEO панель для мониторинга наших сайтов и выбора верной стратегии их развития. Мы надеемся что то что мы создали пригодится Вам и возможно Вы поможете нам развиваться и совершенствоваться вместе с Вами.

Статистика форума

Темы
406.601
Сообщения
465.015
Пользователи
84.289
Новый пользователь
Пол

Приложения форума для iOS и Android


У ркн там нет власти ;)
Приватные разговоры
Помощь Пользователи
    Вы не присоединились ни к одной комнате.