За последнюю неделю опубликовано 66 новых материалов.
Инструкция новичку Путеводитель по форуму Прокси для Telegram Показать подсказки , это бомба!

Скачать Побег / The Getaway (1972) BDRip 1080p от FREEISLAND бесплатно через торрент

  • Поучаствуй (в качестве покупателя) в любых пяти совместных покупках (кроме завершённых и "Моментальных") и получи группу "Новичок" навсегда -> ссылка на раздел
  • Получай до 480 рублей за каждого приглашенного пользователя!
    представляем Вам очередное расширение партнерской программы, подробности описаны тут -> ссылка
  • 90% материалов доступно к скачиванию после простой регистрации!
    Если же ты хочешь скачивать материалы без требования оставлять отзывы то получи группу "Новичок", 10 способов повышения описаны тут -> ссылка
  • К сожалению количество битых ссылок растет и мы уже не можем их оперативно восстанавливать поэтому просим помощи у каждого нашего пользователя.
    С сегодняшнего дня, за каждую восстановленную ссылку мы заплатим Вам.
    Подробнее тут -> ссылка
  • Перенесем твои заслуги с другого ресурса!
    Мы понимаем как сложно прокачивать аккаунты на форумах, вроде раскачал аккаунт, а тут появляется ресурс в 100 раз круче но тоже с системой прокачки и снова качать аккаунт...
    Предлагаем вам перенести Ваши заслуги на другом подобном ресурсе к нам.
    Подробности описаны тут -> ссылка
  • Вы можете получать по 2.5% с каждой покупки и продажи на маркете! Подробности в теме Партнёрская программа
Если Вы не хотите скачивать, Вы всегда можетепосмотретьонлайн, просто нажмите кнопку ниже :

Открыть плеер

Torrent_Bot

Торрент-Бот
Бот форума
4 Окт 2016
92
163
20

ПобегThe Getaway«They're Hot - McQueen/MacGraw»
Год выпуска: 1972
Страна: США
Жанр: боевик, триллер, криминал
Продолжительность: 02:02:49
Перевод: Профессиональный (многоголосый закадровый)
Субтитры: English (UTF-8)

Режиссер: Сэм Пекинпа


В ролях: Стив МакКуин / Steve McQueen (Doc McCoy), Эли МакГроу / Ali MacGraw (Carol McCoy), Бен Джонсон / Ben Johnson (Jack Beynon), Сэлли Стразерс / Sally Struthers (Fran Clinton), Аль Леттьери / Al Lettieri (Rudy Butler), Слим Пикенс / Slim Pickens (Cowboy), Ричард Брайт / Richard Bright (The Thief), Джек Додсон / Jack Dodson (Harold Clinton)

Описание: Очень крутого и знаменитого грабителя банка по имени Док МакКой некие сильные мира сего освобождают из тюряги, где он мотал очередной срок, для совершения ограбления, чтобы списать на него крупную недостачу и затем убрать. Использовали для этого его жену, которая пошла на это, лишь бы вытянуть любимого из-за решетки. Но хотели как лучше, а получилось как всегда: вместе они взяли банк и рванули к мексиканской границе, хотя на хвосте у них сидят не только полицейские, но и боевики мафии…





Качество: BDRip
Формат: MKV
Видео кодек: H.264 (AVC)
Аудио кодеk: AC3
Видео: 1908x796 (2.40:1), 23.976 fps, AVC, 8 500 Kbps
Аудио: Аудио #1: AC3, 192 Kbps, 48.0 KHz, 2 ch RUS MVO | MVO TK "Россия"
Аудио #2: AC3, 192 Kbps, 48.0 KHz, 2 ch RUS MVO | MVO НТВ
Аудио #3: AC3, 192 Kbps, 48.0 KHz, 1 ch RUS VO | VO Казаков
Аудио #4: AC3, 192 Kbps, 48.0 KHz, 1 ch ENG

МедиаИнфо
x264 [info]: frame I:1528 Avg QP:16.31 size:204002
x264 [info]: frame P:38123 Avg QP:18.67 size: 75777
x264 [info]: frame B:137032 Avg QP:21.04 size: 33782
x264 [info]: consecutive B-frames: 1.6% 2.5% 9.5% 17.9% 23.3% 37.2% 4.0% 2.7% 0.6% 0.5%
***************************************
General
Unique ID : 202550179126436645690540562140174938285 (0x9861BEDA88A35835A5FB51C140CEF0AD)
Complete name : The Getaway.1972.1080p.F-HD.mkv
Format : Matroska
Format version : Version 4 / Version 2
File size : 7.95 GiB
Duration : 2h 2mn
Overall bit rate : 9 271 Kbps
Encoded date : UTC 2013-07-21 06:05:24
Writing application : mkvmerge v6.3.0 ('You can't stop me!') built on Jun 28 2013 20:09:41
Writing library : libebml v1.3.0 + libmatroska v1.4.0

Video
ID : 1
Format : AVC
Format/Info : Advanced Video Codec
Format profile : [email protected]
Format settings, CABAC : Yes
Format settings, ReFrames : 5 frames
Codec ID : V_MPEG4/ISO/AVC
Bit rate : 8 500 Kbps
Width : 1 908 pixels
Height : 796 pixels
Display aspect ratio : 2.40:1
Frame rate mode : Variable
Original frame rate : 23.976 fps
Color space : YUV
Chroma subsampling : 4:2:0
Bit depth : 8 bits
Scan type : Progressive
Bits/(Pixel*Frame) : 0.233
Writing library : x264 core 135 r2345kMod f0c1c53
Encoding settings : cabac=1 / ref=5 / deblock=1:-1:-2 / analyse=0x3:0x113 / me=umh / subme=10 / psy=1 / fade_compensate=0.00 / psy_rd=1.00:0.05 / mixed_ref=1 / me_range=48 / chroma_me=1 / trellis=2 / 8x8dct=1 / cqm=0 / deadzone=21,11 / fast_pskip=0 / chroma_qp_offset=-3 / threads=6 / lookahead_threads=1 / sliced_threads=0 / nr=0 / decimate=1 / interlaced=0 / bluray_compat=0 / constrained_intra=0 / bframes=9 / b_pyramid=2 / b_adapt=2 / b_bias=0 / direct=3 / weightb=1 / open_gop=0 / weightp=2 / keyint=250 / keyint_min=23 / scenecut=40 / intra_refresh=0 / rc_lookahead=40 / rc=2pass / mbtree=0 / bitrate=8500 / ratetol=1.0 / qcomp=0.75 / qpmin=0 / qpmax=69 / qpstep=4 / cplxblur=20.0 / qblur=0.5 / vbv_maxrate=62500 / vbv_bufsize=78125 / nal_hrd=none / ip_ratio=1.40 / pb_ratio=1.30 / aq=2:0.80
Language : English
Default : Yes
Forced : No
Matrix coefficients : BT.709

Audio #1
ID : 2
Format : AC-3
Format/Info : Audio Coding 3
Mode extension : CM (complete main)
Format settings, Endianness : Big
Codec ID : A_AC3
Duration : 2h 2mn
Bit rate mode : Constant
Bit rate : 192 Kbps
Channel(s) : 2 channels
Channel positions : Front: L R
Sampling rate : 48.0 KHz
Bit depth : 16 bits
Compression mode : Lossy
Stream size : 169 MiB (2%)
Title : MVO TK "Russia"
Language : Russian
Default : Yes
Forced : No

Audio #2
ID : 3
Format : AC-3
Format/Info : Audio Coding 3
Mode extension : CM (complete main)
Format settings, Endianness : Big
Codec ID : A_AC3
Duration : 2h 2mn
Bit rate mode : Constant
Bit rate : 192 Kbps
Channel(s) : 2 channels
Channel positions : Front: L R
Sampling rate : 48.0 KHz
Bit depth : 16 bits
Compression mode : Lossy
Stream size : 169 MiB (2%)
Title : MVO NTV
Language : Russian
Default : No
Forced : No

Audio #3
ID : 4
Format : AC-3
Format/Info : Audio Coding 3
Mode extension : CM (complete main)
Format settings, Endianness : Big
Codec ID : A_AC3
Duration : 2h 2mn
Bit rate mode : Constant
Bit rate : 192 Kbps
Channel(s) : 1 channel
Channel positions : Front: C
Sampling rate : 48.0 KHz
Bit depth : 16 bits
Compression mode : Lossy
Stream size : 169 MiB (2%)
Title : VO Kazakov
Language : Russian
Default : No
Forced : No

Audio #4
ID : 5
Format : AC-3
Format/Info : Audio Coding 3
Mode extension : CM (complete main)
Format settings, Endianness : Big
Codec ID : A_AC3
Duration : 2h 2mn
Bit rate mode : Constant
Bit rate : 192 Kbps
Channel(s) : 1 channel
Channel positions : Front: C
Sampling rate : 48.0 KHz
Bit depth : 16 bits
Compression mode : Lossy
Stream size : 169 MiB (2%)
Title : Original
Language : English
Default : No
Forced : No

Text
ID : 6
Format : UTF-8
Codec ID : S_TEXT/UTF8
Codec ID/Info : UTF-8 Plain Text
Language : English
Default : No
Forced : No

Menu
00:00:00.000 : en:1. The Huntsville Grind
00:07:52.305 : en:2. For sale to Benyon
00:10:39.638 : en:3. Swimming in freedom
00:15:27.259 : en:4. Nervous reunion
00:21:19.611 : en:5. Doc's job, Benyon's show
00:24:02.941 : en:6. Preparations
00:26:57.616 : en:7. Making sure everybody understands
00:30:47.178 : en:8. The heist begins
00:37:31.916 : en:9. Robbery gone bad
00:40:46.944 : en:10. Didn't make it; Rudy's vow
00:45:08.372 : en:11. Doing it Doc's way
00:47:34.184 : en:12. Doc and Benyon get the picture
00:50:45.542 : en:13. No way to explain it
00:53:26.036 : en:14. Rudy's travel plans
00:55:53.183 : en:15. The McCoys' travel plans
00:57:33.950 : en:16. Inspecting Fran
00:59:59.929 : en:17. Bagging the bagman
01:09:28.330 : en:18. Headed for the Laughlin Hotel
01:11:06.929 : en:19. Full of ifs
01:16:33.255 : en:20. Blasting out of a tight spot
01:24:29.397 : en:21. Food game
01:26:19.674 : en:22. Burgers and bullets
01:30:25.086 : en:23. Getting trashed
01:33:50.958 : en:24. Harold's hangup
01:34:15.149 : en:25. Getting dumped
01:37:24.338 : en:26. I chose you, not him
01:40:16.176 : en:27. Rudy's new rules
01:43:01.842 : en:28. Checking into Room 318
01:46:42.896 : en:29. Doc plays a lunch
01:50:10.437 : en:30. The shooting starts
01:54:24.357 : en:31. Advice to the hitchhikers
01:57:22.035 : en:32. A deal on wheels
02:00:10.536 : en:33. End Credits
Скриншоты






Релиз группы:
 

Вложения

  • 40,8 KB Просмотры: 0
    Личеров 0
    Сидеров 0
    Файлов 1
    Объем 8 GB

Привет!

Мы группа людей которые решили помочь другим в решении их проблем, а так же пользователям с поиском самых свежих и качественных инфопродуктов. За 4 с небольшим месяца мы создали этот форум на который заходят ежедневно тысячи человек и посещаемость постоянно растёт. Мы создали панель лицензирования для защиты PHP скриптов от воровства и SEO панель для мониторинга наших сайтов и выбора верной стратегии их развития. Мы надеемся что то что мы создали пригодится Вам и возможно Вы поможете нам развиваться и совершенствоваться вместе с Вами.

Статистика форума

Темы
406.677
Сообщения
465.122
Пользователи
84.733
Новый пользователь
Gen2203

Приложения форума для iOS и Android


У ркн там нет власти ;)
Приватные разговоры
Помощь Пользователи
    Вы не присоединились ни к одной комнате.