За последнюю неделю опубликовано 31 новых материалов.
Инструкция новичку Путеводитель по форуму Прокси для Telegram Показать подсказки , это бомба!

Скачать Плутовство / Wag the Dog (1997) WEB-DLRip-AVC | P бесплатно через торрент

  • Поучаствуй (в качестве покупателя) в любых пяти совместных покупках (кроме завершённых и "Моментальных") и получи группу "Новичок" навсегда -> ссылка на раздел
  • Получай до 480 рублей за каждого приглашенного пользователя!
    представляем Вам очередное расширение партнерской программы, подробности описаны тут -> ссылка
  • 90% материалов доступно к скачиванию после простой регистрации!
    Если же ты хочешь скачивать материалы без требования оставлять отзывы то получи группу "Новичок", 10 способов повышения описаны тут -> ссылка
  • К сожалению количество битых ссылок растет и мы уже не можем их оперативно восстанавливать поэтому просим помощи у каждого нашего пользователя.
    С сегодняшнего дня, за каждую восстановленную ссылку мы заплатим Вам.
    Подробнее тут -> ссылка
  • Перенесем твои заслуги с другого ресурса!
    Мы понимаем как сложно прокачивать аккаунты на форумах, вроде раскачал аккаунт, а тут появляется ресурс в 100 раз круче но тоже с системой прокачки и снова качать аккаунт...
    Предлагаем вам перенести Ваши заслуги на другом подобном ресурсе к нам.
    Подробности описаны тут -> ссылка
  • Вы можете получать по 2.5% с каждой покупки и продажи на маркете! Подробности в теме Партнёрская программа
Если Вы не хотите скачивать, Вы всегда можетепосмотретьонлайн, просто нажмите кнопку ниже :

Открыть плеер

Torrent_Bot

Торрент-Бот
Бот форума
4 Окт 2016
93
155
20



Информация о фильме
Название: Плутовство / Хвост виляет собакой
Оригинальное название: Wag the Dog
Год выхода: 1997
Жанр: Комедия, драма
Режиссер: Барри Левинсон

В ролях: Роберт Де Ниро, Дастин Хоффман, Вуди Харрельсон, Джеймс Белуши, Энн Хеч, Андреа Мартин, Дэнис Лири, Уилли Нельсон, Кирстен Данст, Уильям Х. Мэйси, Джон Майкл Хиггинс, Сьюзи Плаксон

О фильме:
Чтобы отвлечь внимание общественности от сексуального скандала, связанного с президентом США, срочно вызывают специалиста по нештатным ситуациям Конрада Брина. Брин решает инсценировать небольшую войну и, в свою очередь, привлекает известного голливудского продюсера Стенли Мотса.
Вдвоем они организуют шоу в мировом масштабе с истинно голливудским размахом! Ну не мог Стенли Мотс упустить этот редкий шанс удовлетворения своих профессиональных амбиций!



Страна: США
Студия: Baltimore Pictures, New Line Cinema, Punch Productions Inc., Tribeca Productio
Продолжительность: 01:37:03
Перевод: Профессиональный (многоголосый, закадровый)
Субтитры: Русские, английские

Файл
Кодек: x264
Качество: WEB-DLRip-AVC
Видео: 1024x576, ~2702 kbps, 23,976 fps
Аудио #1: AC-3, 6 ch, 448 kbps (Rus) - MVO R5 «West Video»
Аудио #2: AC-3, 2 ch, 192 kbps (Rus) - MVO Россия-1
Аудио #3: AC-3, 2 ch, 192 kbps (Rus) - MVO ТРК Россия

***Релиз от:-=DoMiNo=-

M/I
x264 info: frame I:1049 Avg QP:16.68 size: 77396
x264 info: frame P:30375 Avg QP:17.66 size: 31144
x264 info: frame B:108211 Avg QP:20.32 size: 9117
x264 info: consecutive B-frames: 1.2% 1.4% 5.3% 37.4% 18.1% 28.9% 4.2% 2.4% 0.7% 0.2% 0.1%


General
Unique ID : 331360045163621310925514173416324981411 (0xF9499F92E8DB310189F48FE36813E2A3)
Complete name : G:Видео_1Плутовство_(1997)_WEB_DLRIP-AVC_[-=DoMiNo=-].mkv
Format : Matroska
Format version : Version 4
File size : 2.44 GiB
Duration : 1 h 37 min
Overall bit rate : 3 606 kb/s
Movie name : Плутовство
Deion : Чтобы отвлечь внимание общественности от сексуального скандала, связанного с президентом США, срочно вызывают специалиста по нештатным ситуациям Конрада Брина. Брин решает инсценировать небольшую войну и, в свою очередь, привлекает известного голливудского продюсера Стенли Мотса. Вдвоем они организуют шоу в мировом масштабе с истинно голливудским размахом! Ну не мог Стенли Мотс упустить этот редкий шанс удовлетворения своих профессиональных амбиций!
Attachments : poster.jpg / backdrop.jpg
ACTORS : Dustin Hoffman, Robert De Niro, Anne Heche, Woody Harrelson, James Belushi, Denis Leary, Willie Nelson, Andrea Martin, Kirsten Dunst, William H. Macy, John Michael Higgins, Suzie Plakson, Michael Belson, Suzanne Cryer, Jason Cottle, Jenna Byrne, Craig T. Nelson
COUNTRY : United States
DATE : 1997-12-25
DIRECTOR : Barry Levinson
GENRE : комедия, драма
HD_VIDEO : 1
ITUNEXTC : mpaa|R|400|
MEDIA_TYPE : 9
ORIGINAL_TITLE : Wag the Dog
PRODUCER : Robert De Niro, Barry Levinson, Jane Rosenthal
PUBLISHER : New Line Cinema, Tribeca Productions, Baltimore Pictures
RATING : 7.58
WRITER : Hilary Henkin, David Mamet

Video
ID : 1
Format : AVC
Format/Info : Advanced Video Codec
Format profile : High@L4.1
Format settings : CABAC / 10 Ref Frames
Format settings, CABAC : Yes
Format settings, ReFrames : 10 frames
Codec ID : V_MPEG4/ISO/AVC
Duration : 1 h 37 min
Bit rate : 2 702 kb/s
Width : 1 024 pixels
Height : 576 pixels
Display aspect ratio : 16:9
Frame rate mode : Constant
Frame rate : 23.976 (24000/1001) FPS
Color space : YUV
Chroma subsampling : 4:2:0
Bit depth : 8 bits
Scan type : Progressive
Bits/(Pixel*Frame) : 0.191
Stream size : 1.83 GiB (75%)
Title : RIP_BY_-=DoMiNo=-
Writing library : x264 core 155 r2901M 7d0ff22
Encoding settings : cabac=1 / ref=10 / deblock=1:-3:-3 / analyse=0x3:0x133 / me=umh / subme=10 / psy=1 / psy_rd=1.00:0.10 / mixed_ref=1 / me_range=32 / chroma_me=1 / trellis=2 / 8x8dct=1 / cqm=0 / deadzone=21,11 / fast_pskip=0 / chroma_qp_offset=-3 / threads=6 / lookahead_threads=1 / sliced_threads=0 / nr=0 / decimate=1 / interlaced=0 / bluray_compat=0 / constrained_intra=0 / bframes=10 / b_pyramid=2 / b_adapt=2 / b_bias=0 / direct=1 / weightb=1 / open_gop=0 / weightp=2 / keyint=240 / keyint_min=24 / scenecut=40 / intra_refresh=0 / rc=crf / mbtree=0 / crf=19.0 / qcomp=0.60 / qpmin=0 / qpmax=69 / qpstep=4 / ip_ratio=1.40 / pb_ratio=1.30 / aq=1:1.00
Language : English
Default : Yes
Forced : No
Color range : Limited
Color primaries : BT.709
Transfer characteristics : BT.709
Matrix coefficients : BT.709

Audio #1
ID : 2
Format : AC-3
Format/Info : Audio Coding 3
Commercial name : Dolby Digital
Codec ID : A_AC3
Duration : 1 h 37 min
Bit rate mode : Constant
Bit rate : 448 kb/s
Channel(s) : 6 channels
Channel layout : L R C LFE Ls Rs
Sampling rate : 48.0 kHz
Frame rate : 31.250 FPS (1536 SPF)
Bit depth : 16 bits
Compression mode : Lossy
Stream size : 311 MiB (12%)
Title : MVO R5 «West Video»
Language : Russian
Service kind : Complete Main
Default : Yes
Forced : No

Audio #2
ID : 3
Format : AC-3
Format/Info : Audio Coding 3
Commercial name : Dolby Digital
Codec ID : A_AC3
Duration : 1 h 37 min
Bit rate mode : Constant
Bit rate : 192 kb/s
Channel(s) : 2 channels
Channel layout : L R
Sampling rate : 48.0 kHz
Frame rate : 31.250 FPS (1536 SPF)
Bit depth : 16 bits
Compression mode : Lossy
Stream size : 133 MiB (5%)
Title : MVO Россия-1
Language : Russian
Service kind : Complete Main
Default : No
Forced : No

Audio #3
ID : 4
Format : AC-3
Format/Info : Audio Coding 3
Commercial name : Dolby Digital
Codec ID : A_AC3
Duration : 1 h 37 min
Bit rate mode : Constant
Bit rate : 192 kb/s
Channel(s) : 2 channels
Channel layout : L R
Sampling rate : 48.0 kHz
Frame rate : 31.250 FPS (1536 SPF)
Bit depth : 16 bits
Compression mode : Lossy
Stream size : 133 MiB (5%)
Title : MVO ТРК Россия
Language : Russian
Service kind : Complete Main
Default : No
Forced : No

Text #1
ID : 5
Format : UTF-8
Codec ID : S_TEXT/UTF8
Codec ID/Info : UTF-8 Plain Text
Title : RUS
Language : Russian
Default : Yes
Forced : No

Text #2
ID : 6
Format : UTF-8
Codec ID : S_TEXT/UTF8
Codec ID/Info : UTF-8 Plain Text
Title : Eng
Language : English
Default : No
Forced : No

Menu
00:00:03.190 : :00:00:03.190
00:00:19.760 : :00:00:19.760
00:01:16.215 : :00:01:16.215
00:03:35.344 : :00:03:35.344
00:05:44.480 : :00:05:44.480
00:08:00.581 : :00:08:00.581
00:09:41.752 : :00:09:41.752
00:12:32.947 : :00:12:32.947
00:15:47.110 : :00:15:47.110
00:18:18.124 : :00:18:18.124
00:20:43.133 : :00:20:43.133
00:22:11.144 : :00:22:11.144
00:24:03.158 : :00:24:03.158
00:26:21.169 : :00:26:21.169
00:28:07.176 : :00:28:07.176
00:29:21.194 : :00:29:21.194
00:32:17.215 : :00:32:17.215
00:35:48.221 : :00:35:48.221
00:36:49.237 : :00:36:49.237
00:39:29.262 : :00:39:29.262
00:43:36.266 : :00:43:36.266
00:44:17.282 : :00:44:17.282
00:47:00.296 : :00:47:00.296
00:49:17.310 : :00:49:17.310
00:51:38.323 : :00:51:38.323
00:53:47.344 : :00:53:47.344
00:57:16.354 : :00:57:16.354
00:58:55.372 : :00:58:55.372
01:01:56.388 : :01:01:56.388
01:04:35.397 : :01:04:35.397
01:06:06.412 : :01:06:06.412
01:08:35.426 : :01:08:35.426
01:10:57.447 : :01:10:57.447
01:14:26.465 : :01:14:26.465
01:17:27.475 : :01:17:27.475
01:19:13.484 : :01:19:13.484
01:20:43.499 : :01:20:43.499
01:23:08.509 : :01:23:08.509
01:24:52.529 : :01:24:52.529
01:28:13.548 : :01:28:13.548
01:31:21.557 : :01:31:21.557
01:32:50.563 : :01:32:50.563
01:33:51.582 : :01:33:51.582
Скриншоты
 

Вложения

  • 13,9 KB Просмотры: 1
    Личеров 0
    Сидеров 0
    Файлов 1
    Объем 2,4 GB

Привет!

Мы группа людей которые решили помочь другим в решении их проблем, а так же пользователям с поиском самых свежих и качественных инфопродуктов. За 4 с небольшим месяца мы создали этот форум на который заходят ежедневно тысячи человек и посещаемость постоянно растёт. Мы создали панель лицензирования для защиты PHP скриптов от воровства и SEO панель для мониторинга наших сайтов и выбора верной стратегии их развития. Мы надеемся что то что мы создали пригодится Вам и возможно Вы поможете нам развиваться и совершенствоваться вместе с Вами.

Статистика форума

Темы
406.543
Сообщения
464.666
Пользователи
83.293
Новый пользователь
Anyos

Приложения форума для iOS и Android


У ркн там нет власти ;)
Приватные разговоры
Помощь Пользователи
    Вы не присоединились ни к одной комнате.