За последнюю неделю опубликовано 52 новых материалов.
Инструкция новичку Путеводитель по форуму Прокси для Telegram Показать подсказки , это бомба!

Скачать Плохое сердце Бастера / Buster's Mal Heart (2016) BDRip 1080p | P, A бесплатно через торрент

  • Поучаствуй (в качестве покупателя) в любых пяти совместных покупках (кроме завершённых и "Моментальных") и получи группу "Новичок" навсегда -> ссылка на раздел
  • Получай до 480 рублей за каждого приглашенного пользователя!
    представляем Вам очередное расширение партнерской программы, подробности описаны тут -> ссылка
  • 90% материалов доступно к скачиванию после простой регистрации!
    Если же ты хочешь скачивать материалы без требования оставлять отзывы то получи группу "Новичок", 10 способов повышения описаны тут -> ссылка
  • К сожалению количество битых ссылок растет и мы уже не можем их оперативно восстанавливать поэтому просим помощи у каждого нашего пользователя.
    С сегодняшнего дня, за каждую восстановленную ссылку мы заплатим Вам.
    Подробнее тут -> ссылка
  • Перенесем твои заслуги с другого ресурса!
    Мы понимаем как сложно прокачивать аккаунты на форумах, вроде раскачал аккаунт, а тут появляется ресурс в 100 раз круче но тоже с системой прокачки и снова качать аккаунт...
    Предлагаем вам перенести Ваши заслуги на другом подобном ресурсе к нам.
    Подробности описаны тут -> ссылка
  • Вы можете получать по 2.5% с каждой покупки и продажи на маркете! Подробности в теме Партнёрская программа
Если Вы не хотите скачивать, Вы всегда можетепосмотретьонлайн, просто нажмите кнопку ниже :

Открыть плеер

Torrent_Bot

Торрент-Бот
Бот форума
4 Окт 2016
91
163
20



Информация о фильме
Название: Плохое сердце Бастера
Оригинальное название: Buster's Mal Heart
Год выпуска: 2016
Жанр:Драма, мистика, триллер
Режиссер: Сара Адина
В ролях: Рами Малек, DJ Куоллс, Кейт Лин Шейл, Лин Шэй, Тоби Хасс, Марк Келли, Тереса Енке, Брук Банди, Джаред Ларсон, Сандра Эллис Лэфферти

Описание: В центре оригинального сюжета оказывается обычный мужчина, живущий простой жизнью. Он – трудолюбивый семьянин, работающий консьержем в местном отеле. Изо дня в день он выполняет свою работу и ничего особо не омрачает его бытие. Однако то, что происходит в его голове, тяжело поддается описанию. После случайной судьбоносной встречи со странным бродягой, наш герой начинает считать, что стал жертвой страшного международного заговора и посему бежит в горы подальше от жутких агентов конспирации, которая видится на каждом углу. Там он живет, как нелюдимый отшельник, считая, что укрылся от преследующего его правительства, проводя холодную зиму в пустующих туристических домиках. При этом его постоянно преследует один и тот же сон, в котором он – потерявшийся в бескрайних просторах океана моряк. Но через некоторое время наш герой начинает потихоньку осознавать странную и пугающую правду о самом себе. Кто же он есть на самом деле?



Выпущено: США, Everything Is Everything, Gamechanger Films, Snowfort Pictures
Продолжительность: 01:37:59
Перевод 1: Профессиональный многоголосый | Jaskier (ненормативная лексика)
Перевод 2: Авторский одноголосый | А. Важенин (BadBajo)

Файл
Качество: BDRip 1080p
Видео: MPEG-4 AVC, 12.8 Мбит/с, 1920х804, 23.976 fps
Аудио 1: 48 kHz, AC3, 5.1, 640 Kbps | RUS | Jaskier
Аудио 2: 48 kHz, AC3, 5.1, 384 Kbps | RUS | BadBajo
Аудио 3: 48 kHz, AC3, 5.1, 640 Kbps | ENG | Оригинал
Субтитры: Английские

Интересно
Проблема 2000 года (часто она обозначается как «проблема Y2K» или «Y2K-совместимость» (аббревиатура: Y — year (год), 2, K — kilo (1000 в СИ)) — проблема, связанная с тем, что разработчики программного обеспечения, выпущенного в XX веке, иногда использовали два знака для представления года в датах, например, 1 января 1961 года в таких программах представлялось как «01.01.61». Некоторые вычислительные машины имели уже аппаратную обработку даты, однако всего два десятичных знака. При наступлении 1 января 2000 года при двузначном представлении года после 99 наступал 00 год (то есть 99+1=00), что интерпретировалось многими старыми программами как 1900, а это, в свою очередь, могло привести к серьёзным сбоям в работе критических приложений, например, систем управления технологическими процессами и финансовых программ. Проблема 2000-го года была вызвана, в том числе, использованием старых программ, что не предполагалось во время их разработки. Известны многочисленные случаи использования в конце 1990-х годов программ середины 1980-х.
Инфо-файл
General
Unique ID : 155898545125767193609930691282843712330 (0x7548F7B6E389EF219AE8DF815FF7BB4A)
Complete name : G:Busters.Mal.Heart.2016.BDRip.1080p.mkv
Format : Matroska
Format version : Version 4 / Version 2
File size : 10.1 GiB
Duration : 1 h 37 min
Overall bit rate : 14.8 Mb/s
Encoded date : UTC 2019-06-13 07:29:24
Writing application : mkvmerge v20.0.0 ('I Am The Sun') 64-bit
Writing library : libebml v1.3.5 + libmatroska v1.4.8

Video
ID : 1
Format : AVC
Format/Info : Advanced Video Codec
Format profile : [email protected]
Format settings : CABAC / 5 Ref Frames
Format settings, CABAC : Yes
Format settings, RefFrames : 5 frames
Codec ID : V_MPEG4/ISO/AVC
Duration : 1 h 37 min
Bit rate : 13.1 Mb/s
Width : 1 920 pixels
Height : 804 pixels
Display aspect ratio : 2.40:1
Frame rate mode : Constant
Frame rate : 23.976 (24000/1001) FPS
Color space : YUV
Chroma subsampling : 4:2:0
Bit depth : 8 bits
Scan type : Progressive
Bits/(Pixel*Frame) : 0.354
Stream size : 8.98 GiB (89%)
Writing library : x264 core 152 r2851 ba24899
Encoding settings : cabac=1 / ref=5 / deblock=1:-3:-3 / analyse=0x3:0x113 / me=umh / subme=10 / psy=1 / psy_rd=1.02:0.00 / mixed_ref=1 / me_range=32 / chroma_me=1 / trellis=2 / 8x8dct=1 / cqm=1 / deadzone=21,11 / fast_pskip=0 / chroma_qp_offset=-1 / threads=12 / lookahead_threads=2 / sliced_threads=0 / nr=0 / decimate=1 / interlaced=0 / bluray_compat=0 / constrained_intra=0 / bframes=8 / b_pyramid=2 / b_adapt=2 / b_bias=0 / direct=3 / weightb=1 / open_gop=0 / weightp=2 / keyint=230 / keyint_min=23 / scenecut=40 / intra_refresh=0 / rc_lookahead=40 / rc=crf / mbtree=0 / crf=16.2 / qcomp=0.66 / qpmin=10 / qpmax=69 / qpstep=4 / vbv_maxrate=62500 / vbv_bufsize=78125 / crf_max=0.0 / nal_hrd=none / filler=0 / ip_ratio=1.30 / pb_ratio=1.20 / aq=1:0.74
Language : English
Default : Yes
Forced : No

Audio #1
ID : 2
Format : AC-3
Format/Info : Audio Coding 3
Codec ID : A_AC3
Duration : 1 h 37 min
Bit rate mode : Constant
Bit rate : 640 kb/s
Channel(s) : 6 channels
Channel positions : Front: L C R, Side: L R, LFE
Sampling rate : 48.0 kHz
Frame rate : 31.250 FPS (1536 SPF)
Bit depth : 16 bits
Compression mode : Lossy
Stream size : 449 MiB (4%)
Title : MVO Jaskier
Language : Russian
Service kind : Complete Main
Default : Yes
Forced : No

Audio #2
ID : 3
Format : AC-3
Format/Info : Audio Coding 3
Codec ID : A_AC3
Duration : 1 h 37 min
Bit rate mode : Constant
Bit rate : 384 kb/s
Channel(s) : 6 channels
Channel positions : Front: L C R, Side: L R, LFE
Sampling rate : 48.0 kHz
Frame rate : 31.250 FPS (1536 SPF)
Bit depth : 16 bits
Compression mode : Lossy
Stream size : 269 MiB (3%)
Title : VO BadBajo
Language : Russian
Service kind : Complete Main
Default : No
Forced : No

Audio #3
ID : 4
Format : AC-3
Format/Info : Audio Coding 3
Codec ID : A_AC3
Duration : 1 h 37 min
Bit rate mode : Constant
Bit rate : 640 kb/s
Channel(s) : 6 channels
Channel positions : Front: L C R, Side: L R, LFE
Sampling rate : 48.0 kHz
Frame rate : 31.250 FPS (1536 SPF)
Bit depth : 16 bits
Compression mode : Lossy
Stream size : 449 MiB (4%)
Language : English
Service kind : Complete Main
Default : No
Forced : No

Text
ID : 5
Format : UTF-8
Codec ID : S_TEXT/UTF8
Codec ID/Info : UTF-8 Plain Text
Duration : 1 h 28 min
Bit rate : 53 b/s
Count of elements : 898
Stream size : 34.8 KiB (0%)
Language : English
Default : No
Forced : No

Menu
00:00:00.000 : en:Chapter 1
00:07:03.465 : en:Chapter 2
00:15:32.598 : en:Chapter 3
00:26:11.904 : en:Chapter 4
00:39:00.588 : en:Chapter 5
00:50:13.177 : en:Chapter 6
00:59:30.817 : en:Chapter 7
01:14:33.761 : en:Chapter 8
01:24:43.453 : en:Chapter 9
01:33:32.232 : en:Chapter 10
Скриншоты


 

Вложения

  • 51,5 KB Просмотры: 1
    Личеров 0
    Сидеров 0
    Файлов 1
    Объем 10,1 GB

Привет!

Мы группа людей которые решили помочь другим в решении их проблем, а так же пользователям с поиском самых свежих и качественных инфопродуктов. За 4 с небольшим месяца мы создали этот форум на который заходят ежедневно тысячи человек и посещаемость постоянно растёт. Мы создали панель лицензирования для защиты PHP скриптов от воровства и SEO панель для мониторинга наших сайтов и выбора верной стратегии их развития. Мы надеемся что то что мы создали пригодится Вам и возможно Вы поможете нам развиваться и совершенствоваться вместе с Вами.

Статистика форума

Темы
410.533
Сообщения
469.089
Пользователи
86.010
Новый пользователь
Mirzo21

Приложения форума для iOS и Android


У ркн там нет власти ;)
Приватные разговоры
Помощь Пользователи
    Вы не присоединились ни к одной комнате.