За последнюю неделю опубликовано 122 новых материалов.
Инструкция новичку Путеводитель по форуму Прокси для Telegram Показать подсказки , это бомба!

Скачать Пляжный бездельник / The Beach Bum (2019) Blu-Ray Remux 1080p | iTunes бесплатно через торрент

  • Поучаствуй (в качестве покупателя) в любых пяти совместных покупках (кроме завершённых и "Моментальных") и получи группу "Новичок" навсегда -> ссылка на раздел
  • Получай до 480 рублей за каждого приглашенного пользователя!
    представляем Вам очередное расширение партнерской программы, подробности описаны тут -> ссылка
  • 90% материалов доступно к скачиванию после простой регистрации!
    Если же ты хочешь скачивать материалы без требования оставлять отзывы то получи группу "Новичок", 10 способов повышения описаны тут -> ссылка
  • К сожалению количество битых ссылок растет и мы уже не можем их оперативно восстанавливать поэтому просим помощи у каждого нашего пользователя.
    С сегодняшнего дня, за каждую восстановленную ссылку мы заплатим Вам.
    Подробнее тут -> ссылка
  • Перенесем твои заслуги с другого ресурса!
    Мы понимаем как сложно прокачивать аккаунты на форумах, вроде раскачал аккаунт, а тут появляется ресурс в 100 раз круче но тоже с системой прокачки и снова качать аккаунт...
    Предлагаем вам перенести Ваши заслуги на другом подобном ресурсе к нам.
    Подробности описаны тут -> ссылка
  • Вы можете получать по 2.5% с каждой покупки и продажи на маркете! Подробности в теме Партнёрская программа
Если Вы не хотите скачивать, Вы всегда можетепосмотретьонлайн, просто нажмите кнопку ниже :

Открыть плеер

Torrent_Bot

Торрент-Бот
Бот форума
4 Окт 2016
82
186
20



Информация о фильме
Название: Пляжный бездельник
Оригинальное название: The Beach Bum
Год выхода: 2019
Жанр: Комедия
Режиссер: Хармони Корин
В ролях: Мэттью МакКонахи, Снуп Догг, Айла Фишер, Стефания Оуэн, Мартин Лоуренс, Зак Эфрон, Джона Хилл, Донован Сент Ви Уильямс, Клинтон Арчамбо, Джерри Асчьоне, Джимми Баффетт

О фильме:
Главный герой фильма – молодой прожигатель жизни по кличке Лунный пес. Он тусуется на пляже, курит травку и много пьет. Для Лунного пса нет правил. Общество ему не указ. Вся его жизнь это одна сплошная вечеринка. У героя была жена, которая при жизни доставала его своими нравоучениями, но и после смерти не оставила своих попыток сделать из мужа приличного человека. Теперь Лунный пес получит наследство жены, только если допишет свою поэму. Вот только стоит ли ему с этим заморачиваться?



Страна: США, Великобритания
Студия: Iconoclast, Anonymous Content, Grisbi Productions, Le, Riverstone Pictures
Продолжительность: 01:34:41
Перевод: Дублированный | iTunes

Файл
Кодек: x.264
Качество: Blu-Ray Remux 1080p
Видео: MPEG-4 AVC, 20.9 Mбит/с, 1920x1080, 23.976 кадр/с
Аудио #1: Русский (АС3, 6ch, 384 Кбит/с, 48.0 KHz) Профессиональный (дублированный) iTunes
Аудио #2: Английский (DTS, 6ch, 1509 Кбит/с, 48.0 KHz)
Аудио #3: Английский (DTS-HD MA, 6ch, 3812 Кбит/с, 48.0 KHz)
Субтитры: Английские (*srt, *pgs)
Трейлер
MediaInfo
Источник: The.Beach.Bum.2019.1080p.BluRay.REMUX.AVC.DTS-HD.MA.5.1-FGT
General
Unique ID : 212248579940272852155205968117325839152 (0x9FAD96EE74F928F29AD754164A4F3B30)
Complete name : The.Beach.Bum.2019.1080p.BluRay.REMUX.mkv
Format : Matroska
Format version : Version 4
File size : 17.6 GiB
Duration : 1 h 34 min
Overall bit rate mode : Variable
Overall bit rate : 26.7 Mb/s
Encoded date : UTC 2019-06-19 11:14:59
Writing application : mkvmerge v7.1.0 ('Good Love') 64bit built on Jul 27 2014 13:06:55
Writing library : libebml v1.3.0 + libmatroska v1.4.1

Video
ID : 1
Format : AVC
Format/Info : Advanced Video Codec
Format profile : [email protected]
Format settings : CABAC / 4 Ref Frames
Format settings, CABAC : Yes
Format settings, Reference fra : 4 frames
Codec ID : V_MPEG4/ISO/AVC
Duration : 1 h 34 min
Bit rate mode : Variable
Bit rate : 20.9 Mb/s
Maximum bit rate : 36.0 Mb/s
Width : 1 920 pixels
Height : 1 080 pixels
Display aspect ratio : 16:9
Frame rate mode : Constant
Frame rate : 23.976 (24000/1001) FPS
Color space : YUV
Chroma subsampling : 4:2:0
Bit depth : 8 bits
Scan type : Progressive
Bits/(Pixel*Frame) : 0.421
Stream size : 13.8 GiB (79%)
Language : English
Default : Yes
Forced : No

Audio #1
ID : 2
Format : AC-3
Format/Info : Audio Coding 3
Commercial name : Dolby Digital
Codec ID : A_AC3
Duration : 1 h 34 min
Bit rate mode : Constant
Bit rate : 384 kb/s
Channel(s) : 6 channels
Channel layout : L R C LFE Ls Rs
Sampling rate : 48.0 kHz
Frame rate : 31.250 FPS (1536 SPF)
Bit depth : 16 bits
Compression mode : Lossy
Stream size : 260 MiB (1%)
Title : iTunes
Language : Russian
Service kind : Complete Main
Default : Yes
Forced : No

Audio #2
ID : 3
Format : DTS
Format/Info : Digital Theater Systems
Codec ID : A_DTS
Duration : 1 h 34 min
Bit rate mode : Constant
Bit rate : 1 509 kb/s
Channel(s) : 6 channels
Channel layout : C L R Ls Rs LFE
Sampling rate : 48.0 kHz
Frame rate : 93.750 FPS (512 SPF)
Bit depth : 24 bits
Compression mode : Lossy
Stream size : 1 022 MiB (6%)
Language : English
Default : No
Forced : No

Audio #3
ID : 4
Format : DTS XLL
Format/Info : Digital Theater Systems
Commercial name : DTS-HD Master Audio
Codec ID : A_DTS
Duration : 1 h 34 min
Bit rate mode : Variable
Bit rate : 3 812 kb/s
Channel(s) : 6 channels
Channel layout : C L R Ls Rs LFE
Sampling rate : 48.0 kHz
Frame rate : 93.750 FPS (512 SPF)
Bit depth : 24 bits
Compression mode : Lossless
Stream size : 2.52 GiB (14%)
Language : English
Default : No
Forced : No

Text #1
ID : 5
Format : UTF-8
Codec ID : S_TEXT/UTF8
Codec ID/Info : UTF-8 Plain Text
Duration : 1 h 31 min
Bit rate : 84 b/s
Count of elements : 1751
Stream size : 56.8 KiB (0%)
Title : English-SRT
Language : English
Default : No
Forced : No

Text #2
ID : 6
Format : PGS
Muxing mode : zlib
Codec ID : S_HDMV/PGS
Codec ID/Info : Picture based subtitle format used on BDs/HD-DVDs
Duration : 1 h 33 min
Bit rate : 15.1 kb/s
Count of elements : 3947
Stream size : 10.2 MiB (0%)
Title : English-PGS
Language : English
Default : No
Forced : No

Menu
00:00:00.000 : en:Chapter 01
00:09:30.570 : en:Chapter 02
00:21:07.224 : en:Chapter 03
00:31:56.998 : en:Chapter 04
00:40:55.870 : en:Chapter 05
00:51:46.770 : en:Chapter 06
01:07:11.027 : en:Chapter 07
01:29:03.087 : en:Chapter 08
Скриншоты
 

Вложения

  • 45 KB Просмотры: 1
    Личеров 0
    Сидеров 0
    Файлов 1
    Объем 17,6 GB

Привет!

Мы группа людей которые решили помочь другим в решении их проблем, а так же пользователям с поиском самых свежих и качественных инфопродуктов. За 4 с небольшим месяца мы создали этот форум на который заходят ежедневно тысячи человек и посещаемость постоянно растёт. Мы создали панель лицензирования для защиты PHP скриптов от воровства и SEO панель для мониторинга наших сайтов и выбора верной стратегии их развития. Мы надеемся что то что мы создали пригодится Вам и возможно Вы поможете нам развиваться и совершенствоваться вместе с Вами.

Статистика форума

Темы
412.265
Сообщения
471.349
Пользователи
91.788
Новый пользователь
Хейндал

Приложения форума для iOS и Android


У ркн там нет власти ;)
Приватные разговоры
Помощь Пользователи
    Вы не присоединились ни к одной комнате.