За последнюю неделю опубликовано 62 новых материалов.
Инструкция новичку Путеводитель по форуму Прокси для Telegram Показать подсказки , это бомба!

Скачать Пламенный лабиринт / Honô no rabirinsu / Labyrinth of Flames [OVA] (2000) BDRip 1080p от WorldAnime | L, L1 бесплатно через торрент

  • Поучаствуй (в качестве покупателя) в любых пяти совместных покупках (кроме завершённых и "Моментальных") и получи группу "Новичок" навсегда -> ссылка на раздел
  • Получай до 480 рублей за каждого приглашенного пользователя!
    представляем Вам очередное расширение партнерской программы, подробности описаны тут -> ссылка
  • 90% материалов доступно к скачиванию после простой регистрации!
    Если же ты хочешь скачивать материалы без требования оставлять отзывы то получи группу "Новичок", 10 способов повышения описаны тут -> ссылка
  • К сожалению количество битых ссылок растет и мы уже не можем их оперативно восстанавливать поэтому просим помощи у каждого нашего пользователя.
    С сегодняшнего дня, за каждую восстановленную ссылку мы заплатим Вам.
    Подробнее тут -> ссылка
  • Перенесем твои заслуги с другого ресурса!
    Мы понимаем как сложно прокачивать аккаунты на форумах, вроде раскачал аккаунт, а тут появляется ресурс в 100 раз круче но тоже с системой прокачки и снова качать аккаунт...
    Предлагаем вам перенести Ваши заслуги на другом подобном ресурсе к нам.
    Подробности описаны тут -> ссылка
  • Вы можете получать по 2.5% с каждой покупки и продажи на маркете! Подробности в теме Партнёрская программа

Torrent_Bot

Торрент-Бот
Бот форума
4 Окт 2016
92
160
20


Информация о фильме
Название: Пламенный лабиринт
Оригинальное название: Honô no rabirinsu / Labyrinth of Flames
Год выпуска: 2000
Жанр:Этти, комедия, приключения, самураи
Режиссер: Нисидзима Кацухико
Озвучено: Коити Тотика, Юки Масуда, Сёдзо Идзука, Юрико Сасаки, Юкари Тамура, Сусуму Тиба, Рури Асано, Синдзи Накаэ, Джессика Калвелло

О фильме: Студент Галан, лелеющий мечту стать настоящим самураем, приезжает погостить в деревню к своей однокурснице Нацу, которая неожиданно оказывается местной принцессой. Здесь ему становится известно, что Нацу планирует выйти за него замуж, а сама невеста узнаёт, что за время её отсутствия у её отца появилась парочка подозрительных сожительниц.



Страна: Япония
Студия: Studio Fantasia
Продолжительность: 2 х ~ 00:33:00
Перевод: Любительский многоголосый (DemonOFmooN, MezIdA, NeaR, aOx, Mukuro, Lali) AniFilm, Любительский одноголосый Persona99, Любительский одногоголосый (Юки Нацуи) Animegroup

Файл
Кодек: AVC
Качество: BDRip 1080p
Видео: 8 bit, ~ 3000 Кбит/с, 1920x1080, 23.976 FPS
Аудио #1: АС3, 2 ch, 192 Кбит/с - Русский, DemonOFmooN, MezIdA, NeaR, aOx, Mukuro, Lali
Аудио #2: ААС, 2 ch, 128 Кбит/с - Русский, Persona99
Аудио #3: АС3, 2 ch, 192 Кбит/с - Русский, Юки Нацуи
Субтитры: Русские



MediaInfo
G:WorldAnime2000.Honoo.no.Labyrinth.OVA.BDRip.1080pHonoo.no.Labyrinth.OVA.E01.BDRip.1920x1080. x264.mkv
Format : Matroska
Format version : Version 2
File size : 819 MiB
Duration : 32 min 54 s
Overall bit rate : 3 478 kb/s
Movie name : Honoo no Labyrinth OVA - 01
Encoded date : UTC 2020-04-09 10:59:00
Writing application : mkvmerge v4.2.0 ('No Talking') сборка от Jul 28 2010 18:38:23
Writing library : libebml v1.0.0 + libmatroska v1.0.0
Cover : Yes
Attachments : cover.jpg

Video
ID : 1
Format : AVC
Format/Info : Advanced Video Codec
Format profile : [email protected]
Format settings : CABAC / 4 Ref Frames
Format settings, CABAC : Yes
Format settings, ReFrames : 4 frames
Muxing mode : Header stripping
Codec ID : V_MPEG4/ISO/AVC
Duration : 32 min 54 s
Nominal bit rate : 2 939 kb/s
Width : 1 920 pixels
Height : 1 080 pixels
Display aspect ratio : 16:9
Original display aspect rat : 16:9
Frame rate mode : Constant
Frame rate : 23.976 (24000/1001) FPS
Color space : YUV
Chroma subsampling : 4:2:0
Bit depth : 8 bits
Scan type : Progressive
Bits/(Pixel*Frame) : 0.059
Writing library : x264 core 152 r2851 ba24899
Encoding settings : cabac=1 / ref=4 / deblock=1:-1:-1 / analyse=0x3:0x133 / me=umh / subme=10 / psy=1 / psy_rd=1.00:0.15 / mixed_ref=1 / me_range=24 / chroma_me=1 / trellis=2 / 8x8dct=1 / cqm=0 / deadzone=21,11 / fast_pskip=1 / chroma_qp_offset=-3 / threads=2 / lookahead_threads=1 / sliced_threads=0 / nr=0 / decimate=1 / interlaced=0 / bluray_compat=0 / constrained_intra=0 / bframes=8 / b_pyramid=2 / b_adapt=2 / b_bias=0 / direct=3 / weightb=1 / open_gop=0 / weightp=2 / keyint=240 / keyint_min=23 / scenecut=40 / intra_refresh=0 / rc_lookahead=60 / rc=2pass / mbtree=1 / bitrate=2939 / ratetol=1.0 / qcomp=0.60 / qpmin=0 / qpmax=69 / qpstep=4 / cplxblur=20.0 / qblur=0.5 / vbv_maxrate=50000 / vbv_bufsize=62500 / nal_hrd=none / filler=0 / ip_ratio=1.40 / aq=1:1.00
Language : Japanese
Default : Yes
Forced : No
Color range : Limited
Color primaries : BT.709
Transfer characteristics : BT.709
Matrix coefficients : BT.709
Statistics Tags Issue : mkvmerge v20.0.0 ('I Am The Sun') 64-bit 2018-02-23 09:10:07 / mkvmerge v4.2.0 ('No Talking') сборка от Jul 28 2010 18:38:23 2020-04-09 10:59:00
FromStats_BitRate : 2938910
FromStats_Duration : 00:32:33.952000000
FromStats_FrameCount : 46848
FromStats_StreamSize : 717811174

Audio #1
ID : 2
Format : AC-3
Format/Info : Audio Coding 3
Muxing mode : Header stripping
Codec ID : A_AC3
Duration : 32 min 54 s
Bit rate mode : Constant
Bit rate : 192 kb/s
Channel(s) : 2 channels
Channel positions : Front: L R
Sampling rate : 48.0 kHz
Frame rate : 31.250 FPS (1536 SPF)
Bit depth : 16 bits
Compression mode : Lossy
Stream size : 45.2 MiB (6%)
Title : AniFilm (DemonOFmooN, MezIdA, NeaR, aOx, Mukuro, Lali)
Language : Russian
Service kind : Complete Main
Default : No
Forced : No

Audio #2
ID : 3
Format : AAC
Format/Info : Advanced Audio Codec
Format profile : LC
Codec ID : A_AAC-2
Duration : 32 min 54 s
Channel(s) : 2 channels
Channel positions : Front: L R
Sampling rate : 48.0 kHz
Frame rate : 46.875 FPS (1024 SPF)
Compression mode : Lossy
Delay relative to video : 21 ms
Title : Persona99
Language : Russian
Default : Yes
Forced : No
Statistics Tags Issue : mkvmerge v20.0.0 ('I Am The Sun') 64-bit 2018-02-23 09:10:07 / mkvmerge v4.2.0 ('No Talking') сборка от Jul 28 2010 18:38:23 2020-04-09 10:59:00
FromStats_BitRate : 192000
FromStats_Duration : 00:32:32.298000000
FromStats_FrameCount : 91514
FromStats_StreamSize : 46855169

Audio #3
ID : 5
Format : AC-3
Format/Info : Audio Coding 3
Muxing mode : Header stripping
Codec ID : A_AC3
Duration : 32 min 54 s
Bit rate mode : Constant
Bit rate : 192 kb/s
Channel(s) : 2 channels
Channel positions : Front: L R
Sampling rate : 48.0 kHz
Frame rate : 31.250 FPS (1536 SPF)
Bit depth : 16 bits
Compression mode : Lossy
Stream size : 45.2 MiB (6%)
Title : Юки Нацуи (Animegroup)
Language : Russian
Service kind : Complete Main
Default : No
Forced : No

Text
ID : 4
Format : SSA
Codec ID : S_TEXT/SSA
Codec ID/Info : Sub Station Alpha
Compression mode : Lossless
Language : Russian
Default : No
Forced : No
Statistics Tags Issue : mkvmerge v20.0.0 ('I Am The Sun') 64-bit 2018-02-23 09:10:07 / mkvmerge v4.2.0 ('No Talking') сборка от Jul 28 2010 18:38:23 2020-04-09 10:59:00
FromStats_BitRate : 168
FromStats_Duration : 00:32:25.070000000
FromStats_FrameCount : 456
FromStats_StreamSize : 40923

Menu
00:00:00.000 : en:Chapter 2
00:01:37.331 : en:Chapter 3
00:03:25.472 : en:Chapter 4
00:09:56.297 : en:Chapter 5
00:18:55.135 : en:Chapter 6
00:28:36.216 : en:Chapter 7
00:31:48.475 : en:Chapter 8
Скриншоты
Релиз от:mottoj
 

Вложения

  • 16,9 KB Просмотры: 0
    Личеров 0
    Сидеров 0
    Файлов 2
    Объем 1,6 GB

Привет!

Мы группа людей которые решили помочь другим в решении их проблем, а так же пользователям с поиском самых свежих и качественных инфопродуктов. За 4 с небольшим месяца мы создали этот форум на который заходят ежедневно тысячи человек и посещаемость постоянно растёт. Мы создали панель лицензирования для защиты PHP скриптов от воровства и SEO панель для мониторинга наших сайтов и выбора верной стратегии их развития. Мы надеемся что то что мы создали пригодится Вам и возможно Вы поможете нам развиваться и совершенствоваться вместе с Вами.

Статистика форума

Темы
406.656
Сообщения
465.104
Пользователи
84.661
Новый пользователь
tomik

Приложения форума для iOS и Android


У ркн там нет власти ;)
Приватные разговоры
Помощь Пользователи
    Вы не присоединились ни к одной комнате.