За последнюю неделю опубликовано 28 новых материалов.
Инструкция новичку Путеводитель по форуму Прокси для Telegram Показать подсказки , это бомба!

Скачать Пивной бум / Beerfest (2006) BDRip-AVC от ExKinoRay | Unrated | P2 бесплатно через торрент

  • Поучаствуй (в качестве покупателя) в любых пяти совместных покупках (кроме завершённых и "Моментальных") и получи группу "Новичок" навсегда -> ссылка на раздел
  • Получай до 480 рублей за каждого приглашенного пользователя!
    представляем Вам очередное расширение партнерской программы, подробности описаны тут -> ссылка
  • 90% материалов доступно к скачиванию после простой регистрации!
    Если же ты хочешь скачивать материалы без требования оставлять отзывы то получи группу "Новичок", 10 способов повышения описаны тут -> ссылка
  • К сожалению количество битых ссылок растет и мы уже не можем их оперативно восстанавливать поэтому просим помощи у каждого нашего пользователя.
    С сегодняшнего дня, за каждую восстановленную ссылку мы заплатим Вам.
    Подробнее тут -> ссылка
  • Перенесем твои заслуги с другого ресурса!
    Мы понимаем как сложно прокачивать аккаунты на форумах, вроде раскачал аккаунт, а тут появляется ресурс в 100 раз круче но тоже с системой прокачки и снова качать аккаунт...
    Предлагаем вам перенести Ваши заслуги на другом подобном ресурсе к нам.
    Подробности описаны тут -> ссылка
  • Вы можете получать по 2.5% с каждой покупки и продажи на маркете! Подробности в теме Партнёрская программа
Если Вы не хотите скачивать, Вы всегда можетепосмотретьонлайн, просто нажмите кнопку ниже :

Открыть плеер

Torrent_Bot

Торрент-Бот
Бот форума
4 Окт 2016
93
156
20

Информация о фильме
Название: Пивной бум / Пивной фестиваль
Оригинальное название: Beerfest
Год выхода: 2006
Жанр: Комедия
Режиссер: Джей Чандрашекхар
В ролях: М. К. Гейни, Пол Сотер, Эрик Столханске, Клорис Личмен, Юрген Прохнов, Овайн Йомэн, Том Тейт, Аллан Граф, Кристофер Мосс

О фильме :
Американцы Тодд и Ян Вулфхаус приезжают в Германию на ежегодный фестиваль пива «Октоберфест» чтобы развеять здесь прах своего дедушки. Здесь они случайно попадают на супер-секретные пивные игры, этакие олимпийские игры по распитию пенного напитка. Братьев подчистую обыгрывают, напоив их до бессознательного состояния. Но ребята обещают вернуться через год, чтобы взять реванш. У себя на родине они собирают команду любителей пива, состоящую из заядлых выпивох. Сильная печень и воля к победе — это все что надо, чтобы выиграть пивные игры…



Страна: США, Австралия
Студия: Warner Bros., Legendary Pictures, Gerber Pictures
Продолжительность: 01:56:27
Перевод: Профессиональный двухголосый, закадровый (два вида)

Файл
Формат: MKV
Качество: BDRip-AVC (BDRemux 1080p)
Видео: MPEG-4 AVC, 768x316, ~ 741 Кбит/с
Аудио #1: AAC-HE, 2 ch, ~ 76 Кбит/с | Профессиональный двухголосый |
Аудио #2: AAC-HE, 2 ch, ~ 76 Кбит/с | Профессиональный двухголосый, «ТВ3» |
Субтитры: Нет

MI
Общее
Уникальный идентификатор : 253416682176000964794288609454580695252 (0xBEA64714CA9C688599347E1291C200D4)
Полное имя : D:MOVIESBeerfest.2006.ExKinoRay.mkv
Формат : Matroska
Версия формата : Version 4 / Version 2
Размер файла : 745 Мбайт
Продолжительность : 1 ч. 56 м.
Общий поток : 895 Кбит/сек
Дата кодирования : UTC 2018-09-19 06:14:32
Программа кодирования : mkvmerge v15.0.0 ('Duel with the Devil') 64-bit
Библиотека кодирования : libebml v1.3.5 + libmatroska v1.4.5

Видео
Идентификатор : 1
Формат : AVC
Формат/Информация : Advanced Video Codec
Профиль формата : [email protected]
Параметр CABAC формата : Да
Параметр RefFrames формата : 12 кадров
Идентификатор кодека : V_MPEG4/ISO/AVC
Продолжительность : 1 ч. 56 м.
Битрейт : 741 Кбит/сек
Ширина : 768 пикселей
Высота : 316 пикселей
Соотношение сторон : 2,40:1
Режим частоты кадров : Постоянный
Частота кадров : 23,976 (24000/1001) кадра/сек
Цветовое пространство : YUV
Субдискретизация насыщенности : 4:2:0
Битовая глубина : 8 бит
Тип развёртки : Прогрессивная
Бит/(Пиксели*Кадры) : 0.127
Размер потока : 617 Мбайт (83%)
Библиотека кодирования : x264 core 152 r2851kMod ba24899
Настройки программы : cabac=1 / ref=12 / deblock=1:-2:-2 / analyse=0x3:0x133 / me=umh / subme=10 / psy=1 / fade_compensate=0.00 / psy_rd=1.00:0.12 / mixed_ref=1 / me_range=32 / chroma_me=1 / trellis=2 / 8x8dct=1 / cqm=0 / deadzone=21,11 / fast_pskip=0 / chroma_qp_offset=-3 / threads=6 / lookahead_threads=1 / sliced_threads=0 / nr=0 / decimate=0 / interlaced=0 / bluray_compat=0 / constrained_intra=0 / bframes=11 / b_pyramid=2 / b_adapt=2 / b_bias=0 / direct=3 / weightb=1 / open_gop=0 / weightp=2 / keyint=240 / keyint_min=23 / scenecut=40 / intra_refresh=0 / rc_lookahead=40 / rc=2pass / mbtree=1 / bitrate=741 / ratetol=1.0 / qcomp=0.60 / qpmin=0 / qpmax=69 / qpstep=4 / cplxblur=20.0 / qblur=0.5 / ip_ratio=1.40 / aq=3:1.00
Default : Да
Forced : Нет

Аудио #1
Идентификатор : 2
Формат : AAC
Формат/Информация : Advanced Audio Codec
Профиль формата : HE-AAC / LC
Идентификатор кодека : A_AAC
Продолжительность : 1 ч. 56 м.
Битрейт : 76,0 Кбит/сек
Каналы : 2 канала
Расположение каналов : Front: L R
Частота : 48,0 КГц / 24,0 КГц
Частота кадров : 23,438 кадра/сек (1024 SPF)
Метод сжатия : С потерями
Задержка видео : 31 мс.
Размер потока : 63,3 Мбайт (8%)
Язык : Russian
Default : Да
Forced : Нет

Аудио #2
Идентификатор : 3
Формат : AAC
Формат/Информация : Advanced Audio Codec
Профиль формата : HE-AAC / LC
Идентификатор кодека : A_AAC
Продолжительность : 1 ч. 56 м.
Битрейт : 76,0 Кбит/сек
Каналы : 2 канала
Расположение каналов : Front: L R
Частота : 48,0 КГц / 24,0 КГц
Частота кадров : 23,438 кадра/сек (1024 SPF)
Метод сжатия : С потерями
Задержка видео : 31 мс.
Размер потока : 63,3 Мбайт (8%)
Язык : Russian
Default : Нет
Forced : Нет

Меню
00:00:00.000 : en:Chapter 01
00:02:58.344 : en:Chapter 02
00:06:13.373 : en:Chapter 03
00:07:54.974 : en:Chapter 04
00:12:29.915 : en:Chapter 05
00:15:50.449 : en:Chapter 06
00:19:22.161 : en:Chapter 07
00:24:23.795 : en:Chapter 08
00:33:48.026 : en:Chapter 09
00:39:00.504 : en:Chapter 10
00:40:36.434 : en:Chapter 11
00:43:05.082 : en:Chapter 12
00:44:33.671 : en:Chapter 13
00:48:25.736 : en:Chapter 14
00:51:59.449 : en:Chapter 15
00:54:22.092 : en:Chapter 16
00:59:12.382 : en:Chapter 17
01:04:35.204 : en:Chapter 18
01:06:49.005 : en:Chapter 19
01:12:45.861 : en:Chapter 20
01:15:51.046 : en:Chapter 21
01:20:20.982 : en:Chapter 22
01:23:35.677 : en:Chapter 23
01:28:33.474 : en:Chapter 24
01:34:17.652 : en:Chapter 25
01:36:07.428 : en:Chapter 26
01:39:08.776 : en:Chapter 27
01:39:40.641 : en:Chapter 28
01:40:43.704 : en:Chapter 29
01:45:37.831 : en:Chapter 30
01:50:04.598 : en:Chapter 31
Скриншоты
 

Вложения

  • 15,6 KB Просмотры: 1
    Личеров 0
    Сидеров 0
    Файлов 1
    Объем 745,1 MB

Привет!

Мы группа людей которые решили помочь другим в решении их проблем, а так же пользователям с поиском самых свежих и качественных инфопродуктов. За 4 с небольшим месяца мы создали этот форум на который заходят ежедневно тысячи человек и посещаемость постоянно растёт. Мы создали панель лицензирования для защиты PHP скриптов от воровства и SEO панель для мониторинга наших сайтов и выбора верной стратегии их развития. Мы надеемся что то что мы создали пригодится Вам и возможно Вы поможете нам развиваться и совершенствоваться вместе с Вами.

Статистика форума

Темы
406.553
Сообщения
464.733
Пользователи
83.476
Новый пользователь
glutomanium3003

Приложения форума для iOS и Android


У ркн там нет власти ;)
Приватные разговоры
Помощь Пользователи
    Вы не присоединились ни к одной комнате.