За последнюю неделю опубликовано 52 новых материалов.
Инструкция новичку Путеводитель по форуму Прокси для Telegram Показать подсказки , это бомба!

Скачать Питер Пэн / Peter Pan (2003) BDRip 720p от NNNB | D бесплатно через торрент

  • Поучаствуй (в качестве покупателя) в любых пяти совместных покупках (кроме завершённых и "Моментальных") и получи группу "Новичок" навсегда -> ссылка на раздел
  • Получай до 480 рублей за каждого приглашенного пользователя!
    представляем Вам очередное расширение партнерской программы, подробности описаны тут -> ссылка
  • 90% материалов доступно к скачиванию после простой регистрации!
    Если же ты хочешь скачивать материалы без требования оставлять отзывы то получи группу "Новичок", 10 способов повышения описаны тут -> ссылка
  • К сожалению количество битых ссылок растет и мы уже не можем их оперативно восстанавливать поэтому просим помощи у каждого нашего пользователя.
    С сегодняшнего дня, за каждую восстановленную ссылку мы заплатим Вам.
    Подробнее тут -> ссылка
  • Перенесем твои заслуги с другого ресурса!
    Мы понимаем как сложно прокачивать аккаунты на форумах, вроде раскачал аккаунт, а тут появляется ресурс в 100 раз круче но тоже с системой прокачки и снова качать аккаунт...
    Предлагаем вам перенести Ваши заслуги на другом подобном ресурсе к нам.
    Подробности описаны тут -> ссылка
  • Вы можете получать по 2.5% с каждой покупки и продажи на маркете! Подробности в теме Партнёрская программа
Если Вы не хотите скачивать, Вы всегда можетепосмотретьонлайн, просто нажмите кнопку ниже :

Открыть плеер

Torrent_Bot

Торрент-Бот
Бот форума
4 Окт 2016
90
166
20

Информация о фильме
Русское название: Питер Пэн
Оригинальное название: Peter Pan
Год выхода: 2003
Жанр: фэнтези, мелодрама, приключения, семейный
Режиссер: П.Дж. Хоган
Выпущено: Великобритания, Австралия, США
Продолжительность: 01:53:21
Перевод: Дублированный
В ролях: Джейсон Айзекс, Джереми Самптер, Рейчел Херд-Вуд, Линн Редгрейв, Ричард Брирс, Оливия Уильямс, Джеффри Палмер, Гарри Ньюэлл, Фредди Попплуэлл, Людивин Санье

Описание:
Питер Пэн — нестареющий мальчик, живущий в стране Нетландии с другими вечно юными детьми. Тем временем фея по имени Тинк наделяет трех лондонских детей — Уэнди, Джона и Майкла Дарлингов — способностью летать.
Они перемещаются в Нетландию, где им приходится вступить в противоборство с бандой пиратов под командованием жестокого Капитана Крюка, который напоминает детям кого-то очень хорошо знакомого…

Файл
Качество: BDRip 720p (исходник Blu-Ray Remux)
Контейнер: MKV (расширение файла)
Видео: 1280x532, 7730 Кбит/сек, 23,976 кадр/сек, AVC, x264, [email protected], 4:3, 0.465 Бит/[Пиксели*Кадры]
Аудио 1: AC-3, 640 Кбит/сек, 6 канала(ов), 48,0 КГц - Дублированный / Русский
Аудио 2: AC-3, 640 Кбит/сек, 6 канала(ов), 48,0 КГц - Оригинал / Английский
Субтитры: Русские|Полные, Английские|Полные
Форсированные субтитры: Нет
Чаптеры (Главы): Есть



Релиз от: Группа:

Скриншоты

MediaInfo
Format : Matroska
Format version : Version 2
File size : 7.68 GiB
Duration : 1 h 53 min
Overall bit rate : 9 704 kb/s
Movie name : Peter.Pan.2003.BDRip.720p.envy
Encoded date : UTC 2018-09-03 09:37:31
Writing application : mkvmerge v5.8.0 ('No Sleep / Pillow') built on Sep 2 2012 15:37:04
Writing library : libebml v1.2.3 + libmatroska v1.3.0
Cover : Yes
Attachments : Cover.jpg

Video
ID : 1
Format : AVC
Format/Info : Advanced Video Codec
Format profile : [email protected]
Format settings : CABAC / 12 Ref Frames
Format settings, CABAC : Yes
Format settings, ReFrames : 12 frames
Codec ID : V_MPEG4/ISO/AVC
Duration : 1 h 53 min
Bit rate : 8 425 kb/s
Width : 1 280 pixels
Height : 532 pixels
Display aspect ratio : 2.40:1
Frame rate mode : Constant
Frame rate : 23.976 (24000/1001) FPS
Color space : YUV
Chroma subsampling : 4:2:0
Bit depth : 8 bits
Scan type : Progressive
Bits/(Pixel*Frame) : 0.516
Stream size : 6.52 GiB (85%)
Title : Peter.Pan.2003.BDRip.720p.envy
Writing library : x264 core 155 r2901 7d0ff22
Encoding settings : cabac=1 / ref=12 / deblock=1:-3:-3 / analyse=0x3:0x133 / me=umh / subme=11 / psy=1 / psy_rd=1.00:0.09 / mixed_ref=1 / me_range=32 / chroma_me=1 / trellis=2 / 8x8dct=1 / cqm=0 / deadzone=21,11 / fast_pskip=0 / chroma_qp_offset=-3 / threads=17 / lookahead_threads=4 / sliced_threads=0 / nr=0 / decimate=0 / interlaced=0 / bluray_compat=0 / constrained_intra=0 / bframes=10 / b_pyramid=2 / b_adapt=2 / b_bias=0 / direct=3 / weightb=1 / open_gop=0 / weightp=2 / keyint=240 / keyint_min=23 / scenecut=40 / intra_refresh=0 / rc_lookahead=40 / rc=2pass / mbtree=0 / bitrate=8425 / ratetol=1.0 / qcomp=0.60 / qpmin=0 / qpmax=69 / qpstep=4 / cplxblur=20.0 / qblur=0.5 / vbv_maxrate=50000 / vbv_bufsize=62500 / nal_hrd=none / filler=0 / ip_ratio=1.40 / pb_ratio=1.30 / aq=1:0.80
Language : English
Default : Yes
Forced : No

Audio #1
ID : 2
Format : AC-3
Format/Info : Audio Coding 3
Codec ID : A_AC3
Duration : 1 h 53 min
Bit rate mode : Constant
Bit rate : 640 kb/s
Channel(s) : 6 channels
Channel positions : Front: L C R, Side: L R, LFE
Sampling rate : 48.0 kHz
Frame rate : 31.250 FPS (1536 SPF)
Bit depth : 16 bits
Compression mode : Lossy
Stream size : 519 MiB (7%)
Title : AC3 5.1 640 kb/s Дублированный
Language : Russian
Service kind : Complete Main
Default : Yes
Forced : No

Audio #2
ID : 3
Format : AC-3
Format/Info : Audio Coding 3
Codec ID : A_AC3
Duration : 1 h 53 min
Bit rate mode : Constant
Bit rate : 640 kb/s
Channel(s) : 6 channels
Channel positions : Front: L C R, Side: L R, LFE
Sampling rate : 48.0 kHz
Frame rate : 31.250 FPS (1536 SPF)
Bit depth : 16 bits
Compression mode : Lossy
Stream size : 519 MiB (7%)
Title : AC3 5.1 640 kb/s
Language : English
Service kind : Complete Main
Default : No
Forced : No

Text #1
ID : 4
Format : UTF-8
Codec ID : S_TEXT/UTF8
Codec ID/Info : UTF-8 Plain Text
Language : Russian
Default : No
Forced : No

Text #2
ID : 5
Format : UTF-8
Codec ID : S_TEXT/UTF8
Codec ID/Info : UTF-8 Plain Text
Language : English
Default : No
Forced : No

Menu
00:00:00.000 : en:The Darling Family
00:02:54.299 : en:A Hidden Kiss
00:06:04.072 : en:Time to Grow Up
00:11:42.910 : en:The Slippery Shadow
00:14:49.013 : en:peter Pan
00:20:22.262 : en:Come Away to Neverland
00:26:24.499 : en:Hook
00:32:25.234 : en:Saved by a Kiss
00:37:01.969 : en:Welcome, Mother
00:39:32.703 : en:Hook's Prisoners
00:42:50.526 : en:The Black Castle
00:46:11.143 : en:Old Enemies
00:50:05.836 : en:Hook's Nemesis
00:52:39.573 : en:Dance of the Fairies
00:55:47.552 : en:Real Feelings
00:59:42.912 : en:Red-Handed Jill
01:05:31.594 : en:Before We're Forgotten
01:09:08.811 : en:A New Era Begins
01:11:58.063 : en:I Do Believe in Fairies
01:17:50.624 : en:Unhappy Thoughts
01:20:15.185 : en:Shadow of the Beast
01:23:25.291 : en:The Final Duel
01:25:11.356 : en:Alone and Unloved
01:27:18.775 : en:A Powerful Thing
01:31:51.714 : en:Old, Alone, Done For
01:33:58.007 : en:A Family Again
01:40:06.417 : en:All Except One
01:42:24.429 : en:End Titles
 

Вложения

  • 154,6 KB Просмотры: 1
    Личеров 0
    Сидеров 0
    Файлов 1
    Объем 7,7 GB

Привет!

Мы группа людей которые решили помочь другим в решении их проблем, а так же пользователям с поиском самых свежих и качественных инфопродуктов. За 4 с небольшим месяца мы создали этот форум на который заходят ежедневно тысячи человек и посещаемость постоянно растёт. Мы создали панель лицензирования для защиты PHP скриптов от воровства и SEO панель для мониторинга наших сайтов и выбора верной стратегии их развития. Мы надеемся что то что мы создали пригодится Вам и возможно Вы поможете нам развиваться и совершенствоваться вместе с Вами.

Статистика форума

Темы
410.907
Сообщения
469.328
Пользователи
88.132
Новый пользователь
Master20

Приложения форума для iOS и Android


У ркн там нет власти ;)
Приватные разговоры
Помощь Пользователи
    Вы не присоединились ни к одной комнате.