За последнюю неделю опубликовано 58 новых материалов.
Инструкция новичку Путеводитель по форуму Прокси для Telegram Показать подсказки , это бомба!

Скачать ПиКей / PK (2014) BDRemux 1080p | P бесплатно через торрент

  • Поучаствуй (в качестве покупателя) в любых пяти совместных покупках (кроме завершённых и "Моментальных") и получи группу "Новичок" навсегда -> ссылка на раздел
  • Получай до 480 рублей за каждого приглашенного пользователя!
    представляем Вам очередное расширение партнерской программы, подробности описаны тут -> ссылка
  • 90% материалов доступно к скачиванию после простой регистрации!
    Если же ты хочешь скачивать материалы без требования оставлять отзывы то получи группу "Новичок", 10 способов повышения описаны тут -> ссылка
  • К сожалению количество битых ссылок растет и мы уже не можем их оперативно восстанавливать поэтому просим помощи у каждого нашего пользователя.
    С сегодняшнего дня, за каждую восстановленную ссылку мы заплатим Вам.
    Подробнее тут -> ссылка
  • Перенесем твои заслуги с другого ресурса!
    Мы понимаем как сложно прокачивать аккаунты на форумах, вроде раскачал аккаунт, а тут появляется ресурс в 100 раз круче но тоже с системой прокачки и снова качать аккаунт...
    Предлагаем вам перенести Ваши заслуги на другом подобном ресурсе к нам.
    Подробности описаны тут -> ссылка
  • Вы можете получать по 2.5% с каждой покупки и продажи на маркете! Подробности в теме Партнёрская программа
Если Вы не хотите скачивать, Вы всегда можетепосмотретьонлайн, просто нажмите кнопку ниже :

Открыть плеер

Torrent_Bot

Торрент-Бот
Бот форума
4 Окт 2016
102
157
20



Информация о фильме
Название: ПиКей
Оригинальное название: PK
Год выхода: 2014
Жанр: фэнтези, драма, мелодрама, комедия, детектив
Режиссер: Раджкумар Хирани
В ролях: Аамир Кхан, Анушка Шарма, Санджай Датт, Боман Ирани, Саурабх Шукла, Сушант Сингх Раджпут, Парикшит Сахни, Амардип Джа, Рима Дебнатх, Диру Дривэди

О фильме:
ПиКей, инопланетянин, высаживается на Землю в городе, расположенном в пустыне Раджастан, для изучения человеческой природы и жизни на Земле. Но планета встретила его довольно грубо — у него украли пульт дистанционного управления, с помощью которого он держал связь с космическим кораблем. Теперь он должен найти пульт, а до тех пор ему придется выживать на Земле по-своему. ПиКей задает вопросы, которые никто не задавал раньше. Его детское любопытство приводит к катастрофическим последствиям. Люди, сформировавшиеся на протяжении многих поколений, вынуждены переоценивать свой мир, глядя на него невинными глазами ПиКея



Страна: Индия
Продолжительность: 02:32:32
Перевод: Профессиональный (многоголосый закадровый) ТК Индийское кино
Субтитры: Русские (Full, Forced), Английские

Файл
Качество: BDRemux 1080p
Контейнер: MKV
Видео: 1920x1080 (16:9), 23.976 fps, AVC, 26.3 (36.0max) Mb/s, 0.530 bpp
Аудио 1: AC3; 192 Kbps; 2.0 ch; 48 khz; 16 bit [Русский] | MVO - [ТК ИНДИЙСКОЕ КИНО]
Аудио 2: DTS-HDMA; 4106 Kbps; 5.1 ch; 48 khz; 24 bit (DTS Core: 5.1 / 48 kHz / 1509 kbps / 24-bit) [Русский] | MVO - [ТК ИНДИЙСКОЕ КИНО]
Аудио 3: DTS-HDMA; 4212 Kbps; 5.1 ch; 48 khz; 24 bit (DTS Core: 5.1 / 48 kHz / 1509 kbps / 24-bit) [Хинди] | Original]
Формат субтитров: softsub (SRT)

M/I
Общее
Полное имя : PK.2014.1080p.BDRemux.AVC.DTS-HDMA.Rus.Hin.mkv
Формат : Matroska
Версия формата : Version 4
Размер файла : 37,1 Гбайт
Продолжительность : 2 ч. 32 м.
Режим общего битрейта : Переменный
Общий поток : 34,9 Мбит/сек
Дата кодирования : UTC 2018-01-04 09:28:11
Программа кодирования : mkvmerge v13.0.0 ('The Juggler') 64bit
Библиотека кодирования : libebml v1.3.4 + libmatroska v1.4.5
Обложка : Yes
Attachments : cover.png

Видео
Идентификатор : 1
Формат : AVC
Формат/Информация : Advanced Video Codec
Профиль формата : High@L4.1
Настройки формата : CABAC / 4 Ref Frames
Параметр CABAC формата : Да
Параметр RefFrames формата : 4 кадра
Идентификатор кодека : V_MPEG4/ISO/AVC
Продолжительность : 2 ч. 32 м.
Вид битрейта : Переменный
Битрейт : 26,3 Мбит/сек
Максимальный битрейт : 36,0 Мбит/сек
Ширина : 1 920 пикселей
Высота : 1 080 пикселей
Соотношение сторон : 16:9
Режим частоты кадров : Постоянный
Частота кадров : 23,976 (24000/1001) кадра/сек
Цветовое пространство : YUV
Субдискретизация насыщенности : 4:2:0
Битовая глубина : 8 бит
Тип развёртки : Прогрессивная
Бит/(Пиксели*Кадры) : 0.530
Размер потока : 28,1 Гбайт (76%)
Заголовок : PK.2014.1080p.BDRemux.AVC.DTS-HDMA.Rus.Hin
Язык : Hindi
Default : Да
Forced : Нет

Аудио #1
Идентификатор : 2
Формат : AC-3
Формат/Информация : Audio Coding 3
Коммерческое название : Dolby Digital
Идентификатор кодека : A_AC3
Продолжительность : 2 ч. 32 м.
Вид битрейта : Постоянный
Битрейт : 192 Кбит/сек
Каналы : 2 канала
Channel layout : L R
Частота : 48,0 КГц
Частота кадров : 31,250 кадров/сек (1536 SPF)
Метод сжатия : С потерями
Размер потока : 209 Мбайт (1%)
Заголовок : AC3 2.0 CH @ 192 K [MVO | ТК ИНДИЙСКОЕ КИНО]
Язык : Russian
Service kind : Complete Main
Default : Да
Forced : Нет

Аудио #2
Идентификатор : 3
Формат : DTS XLL
Формат/Информация : Digital Theater Systems
Коммерческое название : DTS-HD Master Audio
Идентификатор кодека : A_DTS
Продолжительность : 2 ч. 32 м.
Вид битрейта : Переменный
Битрейт : 4 106 Кбит/сек
Каналы : 6 каналов
Channel layout : C L R Ls Rs LFE
Частота : 48,0 КГц
Частота кадров : 93,750 кадра/сек (512 SPF)
Битовая глубина : 24 бит
Метод сжатия : Без потерь
Размер потока : 4,38 Гбайт (12%)
Заголовок : DTS-HDMA 5.1 CH @ 4106 K [MVO | ТК ИНДИЙСКОЕ КИНО]
Язык : Russian
Default : Нет
Forced : Нет

Аудио #3
Идентификатор : 4
Формат : DTS XLL
Формат/Информация : Digital Theater Systems
Коммерческое название : DTS-HD Master Audio
Идентификатор кодека : A_DTS
Продолжительность : 2 ч. 32 м.
Вид битрейта : Переменный
Битрейт : 4 212 Кбит/сек
Каналы : 6 каналов
Channel layout : C L R Ls Rs LFE
Частота : 48,0 КГц
Частота кадров : 93,750 кадра/сек (512 SPF)
Битовая глубина : 24 бит
Метод сжатия : Без потерь
Размер потока : 4,49 Гбайт (12%)
Заголовок : DTS-HDMA 5.1 CH @ 4212 K [Original]
Язык : Hindi
Default : Нет
Forced : Нет

Текст #1
Идентификатор : 5
Формат : UTF-8
Идентификатор кодека : S_TEXT/UTF8
Идентификатор кодека/Информация : UTF-8 Plain Text
Продолжительность : 2 ч. 18 м.
Битрейт : 9 бит/сек
Count of elements : 112
Размер потока : 9,86 Кбайт (0%)
Заголовок : [songs + forced]
Язык : Russian
Default : Да
Forced : Да

Текст #2
Идентификатор : 6
Формат : UTF-8
Идентификатор кодека : S_TEXT/UTF8
Идентификатор кодека/Информация : UTF-8 Plain Text
Продолжительность : 2 ч. 29 м.
Битрейт : 95 бит/сек
Count of elements : 1515
Размер потока : 105 Кбайт (0%)
Заголовок : [full]
Язык : Russian
Default : Нет
Forced : Нет

Текст #3
Идентификатор : 7
Формат : UTF-8
Идентификатор кодека : S_TEXT/UTF8
Идентификатор кодека/Информация : UTF-8 Plain Text
Продолжительность : 2 ч. 26 м.
Битрейт : 49 бит/сек
Count of elements : 1722
Размер потока : 53,3 Кбайт (0%)
Язык : English
Default : Нет
Forced : Нет

Меню
00:00:00.000 : en:
00:01:41.434 : en:
00:06:45.404 : en:
00:12:30.750 : en:
00:16:31.991 : en:
00:21:19.778 : en:
00:25:58.682 : en:
00:30:01.382 : en:
00:32:09.427 : en:
00:40:04.402 : en:
00:42:32.550 : en:
00:46:58.649 : en:
00:50:45.584 : en:
00:56:43.149 : en:
01:01:24.681 : en:
01:03:59.460 : en:
01:08:46.330 : en:
01:10:55.334 : en:
01:13:51.760 : en:
01:16:44.224 : en:
01:17:33.273 : en:
01:24:03.496 : en:
01:29:04.547 : en:
01:31:17.847 : en:
01:37:20.501 : en:
01:41:19.073 : en:
01:43:31.830 : en:
01:49:28.478 : en:
01:53:42.440 : en:
01:57:46.559 : en:
02:01:30.283 : en:
02:04:45.478 : en:
02:19:22.354 : en:
02:26:06.007 : en:
02:28:04.333 : en:
Скриншоты
 

Вложения

  • 93,8 KB Просмотры: 0
    Личеров 0
    Сидеров 0
    Файлов 1
    Объем 37,1 GB

Привет!

Мы группа людей которые решили помочь другим в решении их проблем, а так же пользователям с поиском самых свежих и качественных инфопродуктов. За 4 с небольшим месяца мы создали этот форум на который заходят ежедневно тысячи человек и посещаемость постоянно растёт. Мы создали панель лицензирования для защиты PHP скриптов от воровства и SEO панель для мониторинга наших сайтов и выбора верной стратегии их развития. Мы надеемся что то что мы создали пригодится Вам и возможно Вы поможете нам развиваться и совершенствоваться вместе с Вами.

Статистика форума

Темы
405.485
Сообщения
462.606
Пользователи
80.700
Новый пользователь
Paradiza

Приложения форума для iOS и Android


У ркн там нет власти ;)
Приватные разговоры
Помощь Пользователи
    Вы не присоединились ни к одной комнате.