За последнюю неделю опубликовано 91 новых материалов.
Инструкция новичку Путеводитель по форуму Прокси для Telegram Показать подсказки , это бомба!

Скачать ПиКей / Гость / PK (2014) BDRip-AVC от New-Team | P бесплатно через торрент

  • Поучаствуй (в качестве покупателя) в любых пяти совместных покупках (кроме завершённых и "Моментальных") и получи группу "Новичок" навсегда -> ссылка на раздел
  • Получай до 480 рублей за каждого приглашенного пользователя!
    представляем Вам очередное расширение партнерской программы, подробности описаны тут -> ссылка
  • 90% материалов доступно к скачиванию после простой регистрации!
    Если же ты хочешь скачивать материалы без требования оставлять отзывы то получи группу "Новичок", 10 способов повышения описаны тут -> ссылка
  • К сожалению количество битых ссылок растет и мы уже не можем их оперативно восстанавливать поэтому просим помощи у каждого нашего пользователя.
    С сегодняшнего дня, за каждую восстановленную ссылку мы заплатим Вам.
    Подробнее тут -> ссылка
  • Перенесем твои заслуги с другого ресурса!
    Мы понимаем как сложно прокачивать аккаунты на форумах, вроде раскачал аккаунт, а тут появляется ресурс в 100 раз круче но тоже с системой прокачки и снова качать аккаунт...
    Предлагаем вам перенести Ваши заслуги на другом подобном ресурсе к нам.
    Подробности описаны тут -> ссылка
  • Вы можете получать по 2.5% с каждой покупки и продажи на маркете! Подробности в теме Партнёрская программа
Если Вы не хотите скачивать, Вы всегда можетепосмотретьонлайн, просто нажмите кнопку ниже :

Открыть плеер

Torrent_Bot

Торрент-Бот
Бот форума
4 Окт 2016
102
152
20



Информация о фильме
Название: ПиКей / Гость
Оригинальное название: PK
Год выхода: 2014
Жанр: Фантастика, драма, мелодрама, комедия
Режиссер: Раджкумар Хирани
В ролях: Аамир Кхан, Анушка Шарма, Санджай Датт, Боман Ирани, Саурабх Шукла, Сушант Сингх Раджпут, Парикшит Сахни, Амардип Джа, Рима Дебнатх, Диру Дривэди

О фильме: Пиян(ПиКей), инопланетянин, высаживается на Землю в городе, расположенном в пустыне Раджастан, для изучения человеческой природы и жизни на Земле. Но планета встретила его довольно грубо — у него украли пульт дистанционного управления, с помощью которого он держал связь с космическим кораблем. Теперь он должен найти пульт, а до тех пор ему придется выживать на Земле по-своему. Пиян задает вопросы, которые никто не задавал раньше. Его детское любопытство приводит к катастрофическим последствиям. Люди, сформировавшиеся на протяжении многих поколений, вынуждены переоценивать свой мир, глядя на него невинными глазами гостя с другой планеты.

Инфо-файл
General
Unique ID : 219070733216785212908036259819139490901 (0xA4CF7D0E9AED4C9F84F88662CB9DE455)
Complete name : D:2020 рипыПиКейPK.2014.x264.BDRip(AVC)-New-team.mkv
Format : Matroska
Format version : Version 4 / Version 2
File size : 2.17 GiB
Duration : 2 h 32 min
Overall bit rate : 2 040 kb/s
Movie name : ПиКей / Гость- 2014
Encoded date : UTC 2020-02-09 12:40:25
Writing application : mkvmerge v6.1.0 ('Old Devil') built on Mar 4 2013 09:10:42
Writing library : libebml v1.3.0 + libmatroska v1.4.0
Cover : Yes
Attachments : cover.png

Video
ID : 1
Format : AVC
Format/Info : Advanced Video Codec
Format profile : High@L4.1
Format settings : CABAC / 11 Ref Frames
Format settings, CABAC : Yes
Format settings, ReFrames : 11 frames
Codec ID : V_MPEG4/ISO/AVC
Duration : 2 h 32 min
Bit rate : 1 655 kb/s
Width : 1 024 pixels
Height : 440 pixels
Display aspect ratio : 2.35:1
Original display aspect rat : 2.35:1
Frame rate mode : Constant
Frame rate : 23.976 (24000/1001) FPS
Color space : YUV
Chroma subsampling : 4:2:0
Bit depth : 8 bits
Scan type : Progressive
Bits/(Pixel*Frame) : 0.153
Stream size : 1.72 GiB (79%)
Title : Лумина - New-team
Writing library : x264 core 130 r2273 b3065e6
Encoding settings : cabac=1 / ref=11 / deblock=1:3:3 / analyse=0x3:0x113 / me=umh / subme=11 / psy=1 / psy_rd=1.00:0.15 / mixed_ref=1 / me_range=48 / chroma_me=1 / trellis=2 / 8x8dct=1 / cqm=0 / deadzone=21,11 / fast_pskip=0 / chroma_qp_offset=-3 / threads=6 / lookahead_threads=1 / sliced_threads=0 / nr=0 / decimate=0 / interlaced=0 / bluray_compat=0 / constrained_intra=0 / bframes=11 / b_pyramid=2 / b_adapt=2 / b_bias=0 / direct=3 / weightb=1 / open_gop=1 / weightp=2 / keyint=240 / keyint_min=23 / scenecut=40 / intra_refresh=0 / rc=2pass / mbtree=0 / bitrate=1655 / ratetol=1.0 / qcomp=0.60 / qpmin=0 / qpmax=69 / qpstep=4 / cplxblur=20.0 / qblur=0.5 / ip_ratio=1.40 / pb_ratio=1.30 / aq=1:1.00
Language : Russian
Default : Yes
Forced : No

Audio
ID : 2
Format : AC-3
Format/Info : Audio Coding 3
Codec ID : A_AC3
Duration : 2 h 32 min
Bit rate mode : Constant
Bit rate : 384 kb/s
Channel(s) : 6 channels
Channel positions : Front: L C R, Side: L R, LFE
Sampling rate : 48.0 kHz
Frame rate : 31.250 FPS (1536 SPF)
Bit depth : 16 bits
Compression mode : Lossy
Stream size : 419 MiB (19%)
Title : MVO - [ТК ИНДИЙСКОЕ КИНО]
Language : Russian
Service kind : Complete Main
Default : Yes
Forced : No

Text #1
ID : 3
Format : UTF-8
Codec ID : S_TEXT/UTF8
Codec ID/Info : UTF-8 Plain Text
Title : [songs + forced]
Language : Russian
Default : Yes
Forced : Yes
Statistics Tags Issue : mkvmerge v13.0.0 ('The Juggler') 64bit 2018-01-04 09:28:11 / mkvmerge v6.1.0 ('Old Devil') built on Mar 4 2013 09:10:42 2020-02-09 12:40:25
FromStats_BitRate : 9
FromStats_Duration : 02:18:38.690000000
FromStats_FrameCount : 112
FromStats_StreamSize : 10101

Text #2
ID : 4
Format : UTF-8
Codec ID : S_TEXT/UTF8
Codec ID/Info : UTF-8 Plain Text
Title : [full]
Language : Russian
Default : No
Forced : No
Statistics Tags Issue : mkvmerge v13.0.0 ('The Juggler') 64bit 2018-01-04 09:28:11 / mkvmerge v6.1.0 ('Old Devil') built on Mar 4 2013 09:10:42 2020-02-09 12:40:25
FromStats_BitRate : 95
FromStats_Duration : 02:29:32.640000000
FromStats_FrameCount : 1515
FromStats_StreamSize : 107638

Text #3
ID : 5
Format : UTF-8
Codec ID : S_TEXT/UTF8
Codec ID/Info : UTF-8 Plain Text
Language : English
Default : No
Forced : No
Statistics Tags Issue : mkvmerge v13.0.0 ('The Juggler') 64bit 2018-01-04 09:28:11 / mkvmerge v6.1.0 ('Old Devil') built on Mar 4 2013 09:10:42 2020-02-09 12:40:25
FromStats_BitRate : 49
FromStats_Duration : 02:26:14.892000000
FromStats_FrameCount : 1722
FromStats_StreamSize : 54572

Menu
00:00:00.000 : en:
00:01:41.434 : en:
00:06:45.404 : en:
00:12:30.750 : en:
00:16:31.991 : en:
00:21:19.778 : en:
00:25:58.682 : en:
00:30:01.382 : en:
00:32:09.427 : en:
00:40:04.402 : en:
00:42:32.550 : en:
00:46:58.649 : en:
00:50:45.584 : en:
00:56:43.149 : en:
01:01:24.681 : en:
01:03:59.460 : en:
01:08:46.330 : en:
01:10:55.334 : en:
01:13:51.760 : en:
01:16:44.224 : en:
01:17:33.273 : en:
01:24:03.496 : en:
01:29:04.547 : en:
01:31:17.847 : en:
01:37:20.501 : en:
01:41:19.073 : en:
01:43:31.830 : en:
01:49:28.478 : en:
01:53:42.440 : en:
01:57:46.559 : en:
02:01:30.283 : en:
02:04:45.478 : en:
02:19:22.354 : en:
02:26:06.007 : en:
02:28:04.333 : en:



Страна: Индия
Студия: RHF
Продолжительность: 02:32:32
Перевод: Профессиональный (многоголосый закадровый) ТК Индийское кино

Файл
Кодек: MPEG-4 AVC
Качество: BDRip-AVC
Видео: 1024x440, 23.976 fps, 1655 Кбит/с
Звук: Русский - AC3, 48 Гц, 384 Кбит/сек, 6 ch (L C R, + L R, LFE)
Субтитры: Русские (форсированные + пеcни), русские (полные), английские

Семпл

Скриншоты

Релиз от: by
 

Вложения

  • 11,8 KB Просмотры: 0
    Личеров 0
    Сидеров 0
    Файлов 1
    Объем 2,2 GB

Привет!

Мы группа людей которые решили помочь другим в решении их проблем, а так же пользователям с поиском самых свежих и качественных инфопродуктов. За 4 с небольшим месяца мы создали этот форум на который заходят ежедневно тысячи человек и посещаемость постоянно растёт. Мы создали панель лицензирования для защиты PHP скриптов от воровства и SEO панель для мониторинга наших сайтов и выбора верной стратегии их развития. Мы надеемся что то что мы создали пригодится Вам и возможно Вы поможете нам развиваться и совершенствоваться вместе с Вами.

Статистика форума

Темы
404.595
Сообщения
461.474
Пользователи
80.290
Новый пользователь
khlkkk

Приложения форума для iOS и Android


У ркн там нет власти ;)
Приватные разговоры
Помощь Пользователи
    Вы не присоединились ни к одной комнате.