За последнюю неделю опубликовано 35 новых материалов.
Инструкция новичку Путеводитель по форуму Прокси для Telegram Показать подсказки , это бомба!

Скачать ПиКей / Гость / PK (2014) BDRip 720p от SuperMin | P бесплатно через торрент

  • Поучаствуй (в качестве покупателя) в любых пяти совместных покупках (кроме завершённых и "Моментальных") и получи группу "Новичок" навсегда -> ссылка на раздел
  • Получай до 480 рублей за каждого приглашенного пользователя!
    представляем Вам очередное расширение партнерской программы, подробности описаны тут -> ссылка
  • 90% материалов доступно к скачиванию после простой регистрации!
    Если же ты хочешь скачивать материалы без требования оставлять отзывы то получи группу "Новичок", 10 способов повышения описаны тут -> ссылка
  • К сожалению количество битых ссылок растет и мы уже не можем их оперативно восстанавливать поэтому просим помощи у каждого нашего пользователя.
    С сегодняшнего дня, за каждую восстановленную ссылку мы заплатим Вам.
    Подробнее тут -> ссылка
  • Перенесем твои заслуги с другого ресурса!
    Мы понимаем как сложно прокачивать аккаунты на форумах, вроде раскачал аккаунт, а тут появляется ресурс в 100 раз круче но тоже с системой прокачки и снова качать аккаунт...
    Предлагаем вам перенести Ваши заслуги на другом подобном ресурсе к нам.
    Подробности описаны тут -> ссылка
  • Вы можете получать по 2.5% с каждой покупки и продажи на маркете! Подробности в теме Партнёрская программа
Если Вы не хотите скачивать, Вы всегда можетепосмотретьонлайн, просто нажмите кнопку ниже :

Открыть плеер

Torrent_Bot

Торрент-Бот
Бот форума
4 Окт 2016
96
155
20



Информация о фильме
Название: ПиКей / Гость
Оригинальное название: PK
Год выпуска: 2014
Жанр:Фантастика, драма, мелодрама, комедия
Режиссер: Раджкумар Хирани
В ролях: Аамир Кхан, Анушка Шарма, Санджай Датт, Боман Ирани, Саурабх Шукла, Сушант Сингх Раджпут, Парикшит Сахни, Амардип Джа, Рима Дебнатх, Диру Дривэди



Пиян(ПиКей), инопланетянин, высаживается на Землю в городе, расположенном в пустыне Раджастан, для изучения человеческой природы и жизни на Земле. Но планета встретила его довольно грубо — у него украли пульт дистанционного управления, с помощью которого он держал связь с космическим кораблем. Теперь он должен найти пульт, а до тех пор ему придется выживать на Земле по-своему. Пиян задает вопросы, которые никто не задавал раньше. Его детское любопытство приводит к катастрофическим последствиям. Люди, сформировавшиеся на протяжении многих поколений, вынуждены переоценивать свой мир, глядя на него невинными глазами гостя с другой планеты.




Страна: Индия
Студия: RHF
Продолжительность: 02:32:32
Перевод: Профессиональный (многоголосый закадровый) ТК Индийское кино

Файл
Кодек: H.264
Качество: BDRip-720
Видео: 1280x552 (2.35:1), 3108 kbps, 23.976 fps
Звук: Русский (AC3, 6 ch, 384 Кбит/с)
Субтитры: Русские(форс., полные), английские



MI
General
Unique ID : 141216348725066378532923502109166991064 (0x6A3D478AFF06602F7F220C389C48F6D8)
Complete name : F:ФИЛЬМЫРУТОРПиКей (Гость).BDRip 720p.mkv
Format : Matroska
Format version : Version 4
File size : 3.72 GiB
Duration : 2 h 32 min
Overall bit rate : 3 494 kb/s
Movie name : ПиКей / PK (2014) - #LORDKILL#
Encoded date : UTC 2020-08-23 18:27:37
Writing application : mkvmerge v32.0.0 ('Astral Progressions') 64-bit
Writing library : libebml v1.3.7 + libmatroska v1.5.0
Cover : Yes
Attachments : cover.png

Video
ID : 1
Format : AVC
Format/Info : Advanced Video Codec
Format profile : [email protected]
Format settings : CABAC / 12 Ref Frames
Format settings, CABAC : Yes
Format settings, Reference : 12 frames
Codec ID : V_MPEG4/ISO/AVC
Duration : 2 h 32 min
Bit rate : 3 108 kb/s
Width : 1 280 pixels
Height : 552 pixels
Display aspect ratio : 2.35:1
Frame rate mode : Constant
Frame rate : 23.976 (24000/1001) FPS
Color space : YUV
Chroma subsampling : 4:2:0
Bit depth : 8 bits
Scan type : Progressive
Bits/(Pixel*Frame) : 0.183
Stream size : 3.31 GiB (89%)
Writing library : x264 core 159 r2991 1771b55
Encoding settings : cabac=1 / ref=12 / deblock=1:-2:-2 / analyse=0x3:0x113 / me=umh / subme=10 / psy=1 / psy_rd=1.00:0.20 / mixed_ref=1 / me_range=32 / chroma_me=1 / trellis=2 / 8x8dct=1 / cqm=0 / deadzone=21,11 / fast_pskip=0 / chroma_qp_offset=-3 / threads=12 / lookahead_threads=3 / sliced_threads=0 / nr=0 / decimate=1 / interlaced=0 / bluray_compat=0 / constrained_intra=0 / bframes=10 / b_pyramid=2 / b_adapt=2 / b_bias=0 / direct=1 / weightb=1 / open_gop=0 / weightp=2 / keyint=240 / keyint_min=23 / scenecut=40 / intra_refresh=0 / rc=crf / mbtree=0 / crf=20.0 / qcomp=0.60 / qpmin=0 / qpmax=69 / qpstep=4 / ip_ratio=1.40 / pb_ratio=1.30 / aq=1:1.00
Default : Yes
Forced : No

Audio
ID : 2
Format : AC-3
Format/Info : Audio Coding 3
Commercial name : Dolby Digital
Codec ID : A_AC3
Duration : 2 h 32 min
Bit rate mode : Constant
Bit rate : 384 kb/s
Channel(s) : 6 channels
Channel layout : L R C LFE Ls Rs
Sampling rate : 48.0 kHz
Frame rate : 31.250 FPS (1536 SPF)
Compression mode : Lossy
Stream size : 419 MiB (11%)
Title : MVO (ТК ИНДИЙСКОЕ КИНО)
Language : Russian
Service kind : Complete Main
Default : Yes
Forced : No

Text #1
ID : 3
Format : UTF-8
Codec ID : S_TEXT/UTF8
Codec ID/Info : UTF-8 Plain Text
Duration : 2 h 18 min
Bit rate : 9 b/s
Count of elements : 112
Stream size : 9.86 KiB (0%)
Title : Forced + songs
Language : Russian
Default : Yes
Forced : Yes

Text #2
ID : 4
Format : UTF-8
Codec ID : S_TEXT/UTF8
Codec ID/Info : UTF-8 Plain Text
Duration : 2 h 29 min
Bit rate : 95 b/s
Count of elements : 1515
Stream size : 105 KiB (0%)
Title : Full
Language : Russian
Default : No
Forced : No

Text #3
ID : 5
Format : UTF-8
Codec ID : S_TEXT/UTF8
Codec ID/Info : UTF-8 Plain Text
Duration : 2 h 26 min
Bit rate : 49 b/s
Count of elements : 1722
Stream size : 53.3 KiB (0%)
Title : Full
Language : English
Default : No
Forced : No

Menu
00:00:00.000 : en:
00:01:41.434 : en:
00:06:45.404 : en:
00:12:30.750 : en:
00:16:31.991 : en:
00:21:19.778 : en:
00:25:58.682 : en:
00:30:01.382 : en:
00:32:09.427 : en:
00:40:04.402 : en:
00:42:32.550 : en:
00:46:58.649 : en:
00:50:45.584 : en:
00:56:43.149 : en:
01:01:24.681 : en:
01:03:59.460 : en:
01:08:46.330 : en:
01:10:55.334 : en:
01:13:51.760 : en:
01:16:44.224 : en:
01:17:33.273 : en:
01:24:03.496 : en:
01:29:04.547 : en:
01:31:17.847 : en:
01:37:20.501 : en:
01:41:19.073 : en:
01:43:31.830 : en:
01:49:28.478 : en:
01:53:42.440 : en:
01:57:46.559 : en:
02:01:30.283 : en:
02:04:45.478 : en:
02:19:22.354 : en:
02:26:06.007 : en:
02:28:04.333 : en:
Скриншоты
 

Вложения

  • 19,9 KB Просмотры: 0
    Личеров 0
    Сидеров 0
    Файлов 1
    Объем 3,7 GB

Привет!

Мы группа людей которые решили помочь другим в решении их проблем, а так же пользователям с поиском самых свежих и качественных инфопродуктов. За 4 с небольшим месяца мы создали этот форум на который заходят ежедневно тысячи человек и посещаемость постоянно растёт. Мы создали панель лицензирования для защиты PHP скриптов от воровства и SEO панель для мониторинга наших сайтов и выбора верной стратегии их развития. Мы надеемся что то что мы создали пригодится Вам и возможно Вы поможете нам развиваться и совершенствоваться вместе с Вами.

Статистика форума

Темы
406.510
Сообщения
464.512
Пользователи
82.740
Новый пользователь
aksinya10

Приложения форума для iOS и Android


У ркн там нет власти ;)
Приватные разговоры
Помощь Пользователи
    Вы не присоединились ни к одной комнате.