За последнюю неделю опубликовано 29 новых материалов.
Инструкция новичку Путеводитель по форуму Прокси для Telegram Показать подсказки , это бомба!

Скачать Пес дьявола: Гончая ада / Devil Dog: The Hound of Hell (1978) BDRemux 1080p | A бесплатно через торрент

  • Поучаствуй (в качестве покупателя) в любых пяти совместных покупках (кроме завершённых и "Моментальных") и получи группу "Новичок" навсегда -> ссылка на раздел
  • Получай до 480 рублей за каждого приглашенного пользователя!
    представляем Вам очередное расширение партнерской программы, подробности описаны тут -> ссылка
  • 90% материалов доступно к скачиванию после простой регистрации!
    Если же ты хочешь скачивать материалы без требования оставлять отзывы то получи группу "Новичок", 10 способов повышения описаны тут -> ссылка
  • К сожалению количество битых ссылок растет и мы уже не можем их оперативно восстанавливать поэтому просим помощи у каждого нашего пользователя.
    С сегодняшнего дня, за каждую восстановленную ссылку мы заплатим Вам.
    Подробнее тут -> ссылка
  • Перенесем твои заслуги с другого ресурса!
    Мы понимаем как сложно прокачивать аккаунты на форумах, вроде раскачал аккаунт, а тут появляется ресурс в 100 раз круче но тоже с системой прокачки и снова качать аккаунт...
    Предлагаем вам перенести Ваши заслуги на другом подобном ресурсе к нам.
    Подробности описаны тут -> ссылка
  • Вы можете получать по 2.5% с каждой покупки и продажи на маркете! Подробности в теме Партнёрская программа
Если Вы не хотите скачивать, Вы всегда можетепосмотретьонлайн, просто нажмите кнопку ниже :

Открыть плеер

Torrent_Bot

Торрент-Бот
Бот форума
4 Окт 2016
96
155
20

Страна: Канада, США
Студия: Zeitman-Landers-Roberts Productions
Жанр: триллер
Год выпуска: 1978
Продолжительность: 01:35:29



Перевод: Авторский (одноголосый закадровый) - Андрей Дольский
Субтитры: английские
Оригинальная аудиодорожка: английский



Режиссер: Кёртис Харрингтон / Curtis Harrington



В ролях: Ричард Кренна, Ивет Мимо, Ким Ричардс, Айк Айсенманн, Лу Фриззелл, Кен Керчевал, Мартин Бесвик, Р.Г. Армстронг, Тина Менар, Гертруда Флинн



Описание: Семейный любимец, невинный щенок, оказывается одержимым дьяволом.






Сэмпл

Тип релиза: BDRemux 1080p
Контейнер: MKV

Видео: 1920x1080 (16:9), 23.976 fps, AVC, ~29.2Mbps, 0.587 bits/pixel
Аудио 1: Russian, 48.0 KHz, AC3, 2 ch, 192 kbps - AVO Андрей Дольский
Аудио 2: 48 kHz, DTS-HD, 1558 kbps, 2.0, 16-bit (DTS Core: 2.0, 48 kHz, 1510 kbps, 16-bit)

MediaInfo
General
Unique ID : 207495450248002908541327246751845839601 (0x9C1A2B8B63DD52F5BAE9C190BD7FF2F1)
Complete name : N:Мои раздачи HDDevil.Dog_The.Hound.of.Hell.1978.bdremux.mkv
Format : Matroska
Format version : Version 4 / Version 2
File size : 21.0 GiB
Duration : 1h 35mn
Overall bit rate mode : Variable
Overall bit rate : 31.6 Mbps
Encoded date : UTC 2018-08-22 03:36:49
Writing application : mkvmerge v9.5.0 ('Quiet Fire') 64bit
Writing library : libebml v1.3.4 + libmatroska v1.4.5

Video
ID : 1
Format : AVC
Format/Info : Advanced Video Codec
Format profile : High@L4.1
Format settings, CABAC : Yes
Format settings, ReFrames : 4 frames
Codec ID : V_MPEG4/ISO/AVC
Duration : 1h 35mn
Bit rate mode : Variable
Bit rate : 29.8 Mbps
Maximum bit rate : 37.0 Mbps
Width : 1 920 pixels
Height : 1 080 pixels
Display aspect ratio : 16:9
Frame rate mode : Constant
Frame rate : 23.976 (24000/1001) fps
Standard : NTSC
Color space : YUV
Chroma subsampling : 4:2:0
Bit depth : 8 bits
Scan type : Progressive
Bits/(Pixel*Frame) : 0.599
Stream size : 19.9 GiB (94%)
Default : Yes
Forced : No
Color range : Limited
Color primaries : BT.709
Transfer characteristics : BT.709
Matrix coefficients : BT.709

Audio #1
ID : 2
Format : AC-3
Format/Info : Audio Coding 3
Mode extension : CM (complete main)
Format settings, Endianness : Big
Codec ID : A_AC3
Duration : 1h 35mn
Bit rate mode : Constant
Bit rate : 192 Kbps
Channel(s) : 2 channels
Channel positions : Front: L R
Sampling rate : 48.0 KHz
Frame rate : 31.250 fps (1536 spf)
Compression mode : Lossy
Stream size : 131 MiB (1%)
Title : AVO Андрей Дольский
Language : Russian
Default : No
Forced : No

Audio #2
ID : 3
Format : DTS
Format/Info : Digital Theater Systems
Format profile : MA / Core
Mode : 16
Format settings, Endianness : Big
Codec ID : A_DTS
Duration : 1h 35mn
Bit rate mode : Variable / Constant
Bit rate : 1 536 Kbps / 1 509 Kbps
Channel(s) : 2 channels
Channel positions : Front: L R
Sampling rate : 48.0 KHz
Frame rate : 93.750 fps (512 spf)
Bit depth : 16 bits
Compression mode : Lossless / Lossy
Stream size : 1.04 GiB (5%)
Title : Original
Language : English
Default : No
Forced : No

Text
ID : 4
Format : UTF-8
Codec ID : S_TEXT/UTF8
Codec ID/Info : UTF-8 Plain Text
Duration : 1h 33mn
Bit rate : 47 bps
Count of elements : 924
Stream size : 32.6 KiB (0%)
Language : English
Default : No
Forced : No
Скриншоты
 

Вложения

  • 106,2 KB Просмотры: 1
    Личеров 0
    Сидеров 0
    Файлов 1
    Объем 21 GB

Привет!

Мы группа людей которые решили помочь другим в решении их проблем, а так же пользователям с поиском самых свежих и качественных инфопродуктов. За 4 с небольшим месяца мы создали этот форум на который заходят ежедневно тысячи человек и посещаемость постоянно растёт. Мы создали панель лицензирования для защиты PHP скриптов от воровства и SEO панель для мониторинга наших сайтов и выбора верной стратегии их развития. Мы надеемся что то что мы создали пригодится Вам и возможно Вы поможете нам развиваться и совершенствоваться вместе с Вами.

Статистика форума

Темы
406.519
Сообщения
464.552
Пользователи
82.894
Новый пользователь
Вероника Жилкина

Приложения форума для iOS и Android


У ркн там нет власти ;)
Приватные разговоры
Помощь Пользователи
    Вы не присоединились ни к одной комнате.